ExtraTorrent

Login   |   Register   |   Home
Loading...
Loading...
Browse Torrents
| Search Cloud | | | | | FAQ  
» » [60mbAnime com] One Piece - 867 [480p][EngSub]

Download [60mbAnime com] One Piece - 867 [480p][EngSub] extratorrent


Download torrent: Download Magnet [60mbAnime com] One Piece - 867 [480p][EngSub]
Info hash 413215B042650265B604BC8478760E134EF59B63
Torrent ID13979464
Comments: Sort Read Comments
Category: Anime
Health:
 Seeders: n/a |  Leechers: n/a |  Completed: n/a
Torrent language: Japanese Japanese
Total Size: 217.6 MB
Uploader: 60mbAnime Trusted Uploader Site Friend Superman Sun
Torrent added: 06-01-2019, 05:00:42
Views: 63



Extratorrent Download Torrent https://www.Onepiece.com
One Piece 867 GER SUB | Lauernd in der Dunkelheit! Ein ...
onepiece-tube.com/folge/867
One Piece Folge 867 Ger Sub ~ Aniflix
https://www.aniflix.tv/stream/one-piece-folge-867-ger-sub
One piece Episode 867 - Watch Anime Online …
https://otakustream.tv/anime/one-piece/episode-867
One Piece Folge 867 Ger Sub | Anisenpai
anisenpai.net/one-piece-folge-867-ger-sub
One Piece - GerSub - Folge 867 Anime4You
https://www.anime4you.one/show/1/aid/838/epi/867
Watch One Piece Episode 867 English Subbed …
https://www.thewatchcartoononline.tv/one-piece-episode-867-english...
One Piece Kapitel 867: Alles gute zum Geburtstag
www.onepiece-mangas.com/t11442-one-piece-kapitel-867-alles-gute...
https://www.Onepiece.com
https://www.zalando.de/Onepiece
https://www.cosstores.com





General
Complete name : [60mbAnime.com] One Piece - 867 [480p][EngSub].mkv
Format : Matroska
Format version : Version 4
File size : 218 MiB
Duration : 23 min 50 s
Overall bit rate : 1 276 kb/s
Encoded date : UTC 2010-02-22 21:41:29
Writing application : no_variable_data
Writing library : no_variable_data
Attachments : OpenSans-Semibold.ttf

Video
ID : 1
Format : AVC
Format/Info : Advanced Video Codec
Format profile : [email protected]
Format settings : CABAC / 6 Ref Frames
Format settings, CABAC : Yes
Format settings, RefFrames : 6 frames
Codec ID : V_MPEG4/ISO/AVC
Duration : 23 min 50 s
Bit rate : 1 176 kb/s
Width : 848 pixels
Height : 480 pixels
Display aspect ratio : 16:9
Frame rate mode : Constant
Frame rate : 23.976 (24000/1001) FPS
Color space : YUV
Chroma subsampling : 4:2:0
Bit depth : 8 bits
Scan type : Progressive
Bits/(Pixel*Frame) : 0.120
Stream size : 201 MiB (92%)
Writing library : x264 core 142
Encoding settings : cabac=1 / ref=6 / deblock=1:1:1 / analyse=0x1:0x111 / me=umh / subme=8 / psy=1 / psy_rd=0.40:0.00 / mixed_ref=1 / me_range=16 / chroma_me=1 / trellis=1 / 8x8dct=0 / cqm=0 / deadzone=21,11 / fast_pskip=1 / chroma_qp_offset=-2 / threads=6 / lookahead_threads=1 / sliced_threads=0 / nr=0 / decimate=1 / interlaced=0 / bluray_compat=0 / constrained_intra=0 / bframes=5 / b_pyramid=2 / b_adapt=2 / b_bias=0 / direct=3 / weightb=1 / open_gop=0 / weightp=2 / keyint=48 / keyint_min=25 / scenecut=0 / intra_refresh=0 / rc_lookahead=48 / rc=crf / mbtree=1 / crf=17.0 / qcomp=0.60 / qpmin=0 / qpmax=69 / qpstep=4 / vbv_maxrate=2000 / vbv_bufsize=3000 / crf_max=0.0 / nal_hrd=none / filler=0 / ip_ratio=1.40 / aq=1:0.60
Default : Yes
Forced : No

Audio
ID : 2
Format : AAC LC
Format/Info : Advanced Audio Codec Low Complexity
Codec ID : A_AAC-2
Duration : 23 min 50 s
Bit rate : 96.0 kb/s
Channel(s) : 2 channels
Channel layout : L R
Sampling rate : 44.1 kHz
Frame rate : 43.066 FPS (1024 SPF)
Compression mode : Lossy
Delay relative to video : -83 ms
Stream size : 16.4 MiB (8%)
Language : Japanese
Default : Yes
Forced : No

Text
ID : 3
Format : ASS
Codec ID : S_TEXT/ASS
Codec ID/Info : Advanced Sub Station Alpha
Duration : 23 min 31 s
Bit rate : 105 b/s
Count of elements : 273
Compression mode : Lossless
Stream size : 18.2 KiB (0%)
Language : English
Default : Yes
Forced : No





   


Related Torrents
Browse Movies Torrents Related Torrents added recently in our database RSS  
Added  Size  Sort S  Sort L  Sort Health
Download Magnet English  Murder_Comes_to_Town_S02E05_Hed_Do_It_Again_480p_x264-mSD_[e___ in TV, by EZTVag 12 minutes 159.1 MB 98951 4913
Download Magnet English  The_Avengers_(2012)_1080p_10bit_BluRay_HEVC_x265_Dual_Audio____ in Movies, by ARPritam 12 minutes 1.7 GB 89265 29168
Download Magnet English  Jimmy_Kimmel_2019_03_20_Rob_Lowe_WEB_h264-TBS[TGx] in TV, by mazemaze16 12 minutes 256.2 MB 39580 83364
Download Magnet English  Step_Up_High_Water_S02E02_480p_x264-mSD_[eztv] in TV, by EZTVag 17 minutes 271.1 MB 10807 45640
Download Magnet English  Step_Up_High_Water_S02_COMPLETE_XviD-AFG[TGx] in TV, by mazemaze16 17 minutes 5.1 GB 89825 45288
Download Magnet English  Step_Up_High_Water_S02E04_480p_x264-mSD_[eztv] in TV, by EZTVag 17 minutes 215.0 MB 44926 80764
Download Magnet English  Mighty_Planes_S03E02_T-38_Talon_480p_x264-mSD_[eztv] in TV, by EZTVag 22 minutes 212.6 MB 29676 90624
Download Magnet English  Botched_S05E16_720p_WEB_x264-TBS[TGx] in TV, by mazemaze16 22 minutes 836.6 MB 59892 42409
Download Magnet English  Full_Frontal_With_Samantha_Bee_S04E05_WEB_h264-TBS_[eztv] in TV, by EZTVag 22 minutes 394.6 MB 1468 1474
Download Magnet Hindi  Sacred_Games_S01_SweSub+MultiSubs_1080p_x264-Justiso in TV, by Justiso 22 minutes 7.0 GB 28181 86694




Recent Searches

Home - Browse Torrents - Upload Torrent - Recent Torrents - Login - Register - FAQ

Can't load ExtraTorrent.Network
2006-2018 ExtraTorrent.Network