ExtraTorrent

Login   |   Register   |   Home
Loading...
Loading...
Browse Torrents
| Search Cloud | | | | | FAQ  
» » Yun Hota Toh Kya Hota (2006) Hindi 720p WEB-DL x264 AC3 2 0 ESub-Sun George (Requested)

Download Yun Hota Toh Kya Hota (2006) Hindi 720p WEB-DL x264 AC3 2 0 ESub-Sun George (Requested) extratorrent


Download torrent: Download Magnet Yun Hota Toh Kya Hota (2006) Hindi 720p WEB-DL x264 AC3 2 0 ESub-Sun George (Requested)
Info hash 90568ECB102308AEA8BDF4A0CB0E9F6BB8A9D7C6
Torrent ID13980883
Comments: Sort Read Comments
Category: Movies
Health:
 Seeders: 1 |  Leechers: 1 |  Completed: 3
Torrent language: Hindi Hindi
Total Size: 1.7 GB
Uploader: Sungeorge Trusted Uploader Site Friend Superman Sun
Torrent added: 08-01-2019, 10:25:05
Views: 158



Extratorrent Download Torrent



Yun Hota Toh Kya Hota (2006) Hindi 720p WEB-DL x264 AC3 2.0 ESub-Sun George (Requested)









For Direct Links Visit: http://FilmMaza.Org





https://www.imdb.com/title/tt0470614/











===================================================================


Source : DTOne (Thanks)


General
Format : Matroska
Format version : Version 4 / Version 2
File size : 1.68 GiB
Duration : 1 h 55 min
Overall bit rate : 2 083 kb/s
Movie name : Yun Hota Toh Kya Hota (2006) Hindi 720p WEB-DL x264 AC3 2.0 ESub-Sun George (Requested)


===================================================================


Video
ID : 1
Format : AVC
Format/Info : Advanced Video Codec
Format profile : [email protected]
Format settings : CABAC / 4 Ref Frames
Format settings, CABAC : Yes
Format settings, RefFrames : 4 frames
Codec ID : V_MPEG4/ISO/AVC
Duration : 1 h 55 min
Bit rate : 1 857 kb/s
Width : 1 280 pixels
Height : 720 pixels
Display aspect ratio : 16:9
Frame rate mode : Variable
Frame rate : 25.000 FPS
Color space : YUV
Chroma subsampling : 4:2:0
Bit depth : 8 bits
Scan type : Progressive
Bits/(Pixel*Frame) : 0.081
Stream size : 1.50 GiB (89%)
Title : Sun George


===================================================================


Audio
ID : 2
Format : AC-3
Format/Info : Audio Coding 3
Codec ID : A_AC3
Duration : 1 h 55 min
Bit rate mode : Constant
Bit rate : 224 kb/s
Channel(s) : 2 channels
Channel positions : Front: L R
Sampling rate : 48.0 kHz
Frame rate : 31.250 FPS (1536 SPF)
Bit depth : 16 bits
Compression mode : Lossy
Stream size : 185 MiB (11%)
Title : Sun George
Language : Hindi
Service kind : Complete Main
Default : Yes
Forced : No

Text
ID : 3
Format : UTF-8
Codec ID : S_TEXT/UTF8
Codec ID/Info : UTF-8 Plain Text
Duration : 1 h 50 min
Bit rate : 82 b/s
Count of elements : 1858
Stream size : 66.1 KiB (0%)
Title : Sun George
Language : English
Default : Yes
Forced : Yes



















   


Related Torrents




Recent Searches

Home - Browse Torrents - Upload Torrent - Recent Torrents - Login - Register - FAQ

Can't load ExtraTorrent.Network
2006-2018 ExtraTorrent.Network