ExtraTorrent

Login   |   Register   |   Home
Loading...
Loading...
Browse Torrents
| Search Cloud | | | | | FAQ  
» » Goosebumps 2 Haunted Halloween 2018 1080p BluRay x264 DTS-HDMA 5 1 MSubS+XTRAS-Hon3yHD

Download Goosebumps 2 Haunted Halloween 2018 1080p BluRay x264 DTS-HDMA 5 1 MSubS+XTRAS-Hon3yHD extratorrent


Download torrent: Download Magnet Goosebumps 2 Haunted Halloween 2018 1080p BluRay x264 DTS-HDMA 5 1 MSubS+XTRAS-Hon3yHD
Info hash 40794436221E18A43879947FDCDA0C1A78D63685
Torrent ID13980901
Comments: Sort Read Comments
Category: Movies
Health:
 Seeders: 3 |  Leechers: n/a |  Completed: 201
Torrent language: English English
Total Size: 9.6 GB
Uploader: Hon3yHD Trusted Uploader Site Friend Superman Sun
Torrent added: 08-01-2019, 10:55:05
Views: 49



Extratorrent Download Torrent






Goosebumps 2 Haunted Halloween 2018 1080p BluRay x264 DTS-HDMA 5.1 - Hon3yHD

Source: BD50 @ WatchHD. Thanks !

Format : Matroska
Format version : Version 4 / Version 2
File size : 9.03 GiB
Duration : 1 h 29 min
Overall bit rate : 14.4 Mb/s
Movie name : Goosebumps 2 Haunted Halloween 2018 - Hon3yHD


Video
ID : 1
Format : AVC
Format/Info : Advanced Video Codec
Format profile : [email protected]
Format settings, CABAC : Yes
Format settings, ReFrames : 5 frames
Codec ID : V_MPEG4/ISO/AVC
Duration : 1 h 29 min
Bit rate : 10.5 Mb/s
Width : 1 920 pixels
Height : 800 pixels
Display aspect ratio : 2.40:1
Frame rate mode : Constant
Frame rate : 23.976 (24000/1001) FPS
Language : English
Default : Yes
Forced : No
Color range : Limited
Color primaries : BT.709
Transfer characteristics : BT.709
Matrix coefficients : BT.709

Audio #1
ID : 2
Format : DTS
Format/Info : Digital Theater Systems
Format profile : MA / Core
Mode : 16
Format settings, Endianness : Big
Codec ID : A_DTS
Duration : 1 h 29 min
Bit rate mode : Variable / Constant
Bit rate : 1 971 kb/s / 1 509 kb/s
Channel(s) : 6 channels
Channel positions : Front: L C R, Side: L R, LFE
Sampling rate : 48.0 kHz
Frame rate : 93.750 FPS (512 spf)
Bit depth : 16 bits
Compression mode : Lossless / Lossy
Stream size : 1.24 GiB (14%)
Language : English
Default : Yes
Forced : No

Audio #2
ID : 3
Format : AC-3
Format/Info : Audio Coding 3
Mode extension : CM (complete main)
Format settings, Endianness : Big
Codec ID : A_AC3
Duration : 1 h 29 min
Bit rate mode : Constant
Bit rate : 640 kb/s
Channel(s) : 6 channels
Channel positions : Front: L C R, Side: L R, LFE
Sampling rate : 48.0 kHz
Frame rate : 31.250 FPS (1536 spf)
Bit depth : 16 bits
Compression mode : Lossy
Stream size : 411 MiB (4%)
Language : English
Default : No
Forced : No

Audio #3
ID : 4
Format : AC-3
Format/Info : Audio Coding 3
Mode extension : CM (complete main)
Format settings, Endianness : Big
Codec ID : A_AC3
Duration : 1 h 29 min
Bit rate mode : Constant
Bit rate : 640 kb/s
Channel(s) : 6 channels
Channel positions : Front: L C R, Side: L R, LFE
Sampling rate : 48.0 kHz
Frame rate : 31.250 FPS (1536 spf)
Bit depth : 16 bits
Compression mode : Lossy
Stream size : 411 MiB (4%)
Language : French
Default : No
Forced : No

Audio #4
ID : 5
Format : AC-3
Format/Info : Audio Coding 3
Mode extension : CM (complete main)
Format settings, Endianness : Big
Codec ID : A_AC3
Duration : 1 h 29 min
Bit rate mode : Constant
Bit rate : 640 kb/s
Channel(s) : 6 channels
Channel positions : Front: L C R, Side: L R, LFE
Sampling rate : 48.0 kHz
Frame rate : 31.250 FPS (1536 spf)
Bit depth : 16 bits
Compression mode : Lossy
Stream size : 411 MiB (4%)
Language : Spanish
Default : No
Forced : No

Text #1
ID : 6
Format : UTF-8
Codec ID : S_TEXT/UTF8
Codec ID/Info : UTF-8 Plain Text
Duration : 1 h 28 min
Bit rate : 64 b/s
Count of elements : 1380
Stream size : 42.2 KiB (0%)
Title : SDH
Language : English
Default : Yes
Forced : No

Text #2
ID : 7
Format : UTF-8
Codec ID : S_TEXT/UTF8
Codec ID/Info : UTF-8 Plain Text
Duration : 1 h 27 min
Bit rate : 56 b/s
Count of elements : 1089
Stream size : 36.1 KiB (0%)
Language : English
Default : No
Forced : No

Text #3
ID : 8
Format : UTF-8
Codec ID : S_TEXT/UTF8
Codec ID/Info : UTF-8 Plain Text
Duration : 1 h 28 min
Bit rate : 39 b/s
Count of elements : 1018
Stream size : 25.9 KiB (0%)
Language : French
Default : No
Forced : No

Text #4
ID : 9
Format : UTF-8
Codec ID : S_TEXT/UTF8
Codec ID/Info : UTF-8 Plain Text
Duration : 1 h 28 min
Bit rate : 54 b/s
Count of elements : 1121
Stream size : 35.1 KiB (0%)
Language : Spanish
Default : No
Forced : No

Text #5
ID : 10
Format : UTF-8
Codec ID : S_TEXT/UTF8
Codec ID/Info : UTF-8 Plain Text
Duration : 49 min 40 s
Bit rate : 0 b/s
Count of elements : 4
Stream size : 140 Bytes (0%)
Language : French
Default : No
Forced : No

Menu
00:00:00.000 : :Chapter 01
00:04:33.440 : :Chapter 02
00:11:16.175 : :Chapter 03
00:18:43.914 : :Chapter 04
00:21:41.634 : :Chapter 05
00:27:23.350 : :Chapter 06
00:32:37.122 : :Chapter 07
00:37:48.433 : :Chapter 08
00:45:14.921 : :Chapter 09
00:50:11.717 : :Chapter 10
00:56:17.708 : :Chapter 11
01:00:35.757 : :Chapter 12
01:05:28.133 : :Chapter 13
01:09:25.119 : :Chapter 14
01:14:37.932 : :Chapter 15
01:20:29.324 : :Chapter 16







   


Related Torrents




Recent Searches

Home - Browse Torrents - Upload Torrent - Recent Torrents - Login - Register - FAQ

Can't load ExtraTorrent.Network
2006-2018 ExtraTorrent.Network