ExtraTorrent

Login   |   Register   |   Home
Loading...
Loading...
Browse Torrents
| Search Cloud | | | | | FAQ  
» » Love Sonia (2018) Hindi 720p WEB-DL x264 AC3 2 0-Sun George

Download Love Sonia (2018) Hindi 720p WEB-DL x264 AC3 2 0-Sun George extratorrent


Download torrent: Download Magnet Love Sonia (2018) Hindi 720p WEB-DL x264 AC3 2 0-Sun George
Info hash E6933A92FD5570B1E83DAC829AC18EFC1DE51521
Torrent ID13980922
Comments: Sort Read Comments
Category: Movies
Health:
 Seeders: 2 |  Leechers: n/a |  Completed: 5
Torrent language: Hindi Hindi
Total Size: 1.5 GB
Uploader: Sungeorge Trusted Uploader Site Friend Superman Sun
Torrent added: 08-01-2019, 11:40:04
Views: 129



Extratorrent Download Torrent Love Sonia (2018) Hindi 720p WEB-DL x264 AC3 …
https://movcr.tv/download-love-sonia-2018-hindi-720p-web-dl-x264...
Love Sonia (2018) Hindi 720p WEB-DL x264 AC3 …
https://badshahuploads.net/love-sonia-2018-hindi-720p-web-dl-x264...
Love Sonia (2018) Hindi 720p WEB-DL x264 AC3 …
https://torrentz2.eu/e6933a92fd5570b1e83dac829ac18efc1de51521
Love Sonia (2018) Hindi 720p WEB-DL x264 AC3 …
https://ettv.online/torrent/284445/love-sonia-2018-hindi-720p-web...
Love Sonia (2018) Hindi 720p WEB-DL x264 AC3 …
https://xtra.unblocked.lol/torrent/7467783/Love+Sonia+(2018)+Hindi+...
Love Sonia (2018) Hindi 720p WEB-DL x264 AC3 …
https://1337x.unblocked.pet/torrent/3508882/Love-Sonia-2018-Hindi...
Hindi » Page 9 » OneDDL - Download All You Want
oneddl.org/tags/Hindi/page/9
Manmarziyaan (2018) Hindi 720p WEB-DL x264 …
https://badshahuploads.net/manmarziyaan-2018-hindi-720p-web-dl...
Love Sonia (2018) Hindi 720p WEB-DL x264 AC3 …
storetorrents.com/hash/E6933A92FD5570B1E83DAC829AC18EFC1DE51521
Love Sonia (2018) – Channel Myanmar
https://channelmyanmar.org/love-sonia-2018



Love Sonia (2018) Hindi 720p WEB-DL x264 AC3 2.0-Sun George






https://www.imdb.com/title/tt3823392/









For Direct Links Visit: http://FilmMaza.Org














===================================================================


General
Format : Matroska
Format version : Version 4 / Version 2
File size : 1.45 GiB
Duration : 2 h 3 min
Overall bit rate : 1 677 kb/s
Movie name : Love Sonia (2018) Hindi 720p WEB-DL x264 AC3 2.0-Sun George


===================================================================


Video
ID : 1
Format : AVC
Format/Info : Advanced Video Codec
Format profile : [email protected]
Format settings : CABAC / 4 Ref Frames
Format settings, CABAC : Yes
Format settings, RefFrames : 4 frames
Codec ID : V_MPEG4/ISO/AVC
Duration : 2 h 3 min
Bit rate : 1 500 kb/s
Width : 1 280 pixels
Height : 720 pixels
Display aspect ratio : 16:9
Frame rate mode : Variable
Frame rate : 24.000 FPS
Color space : YUV
Chroma subsampling : 4:2:0
Bit depth : 8 bits
Scan type : Progressive
Bits/(Pixel*Frame) : 0.068
Stream size : 1.28 GiB (88%)
Title : Sun George


===================================================================


Audio
ID : 2
Format : AC-3
Format/Info : Audio Coding 3
Codec ID : A_AC3
Duration : 2 h 3 min
Bit rate mode : Constant
Bit rate : 192 kb/s
Channel(s) : 2 channels
Channel positions : Front: L R
Sampling rate : 48.0 kHz
Frame rate : 31.250 FPS (1536 SPF)
Bit depth : 16 bits
Compression mode : Lossy
Stream size : 170 MiB (11%)
Title : Sun George
Language : Hindi
Service kind : Complete Main
Default : Yes
Forced : No



















   


Related Torrents




Recent Searches

Home - Browse Torrents - Upload Torrent - Recent Torrents - Login - Register - FAQ

Can't load ExtraTorrent.Network
2006-2018 ExtraTorrent.Network