ExtraTorrent

Login   |   Register   |   Home
Browse Torrents
| Search Cloud | | | | | FAQ  
» » The Usual Suspects (1995) 1080p 10bit Bluray x265 HEVC [Org DD+ 2 0 Hindi + DD 5 1 English] ESubs ~ {RoCK-HD-STAr}

Download The Usual Suspects (1995) 1080p 10bit Bluray x265 HEVC [Org DD+ 2 0 Hindi + DD 5 1 English] ESubs ~ {RoCK-HD-STAr} extratorrent


Download torrent: Download Magnet The Usual Suspects (1995) 1080p 10bit Bluray x265 HEVC [Org DD+ 2 0 Hindi + DD 5 1 English] ESubs ~ {RoCK-HD-STAr}
Info hash CC0176D3467330A4903715E1C1CF9446759F37B9
Torrent ID13980929
Comments: Sort Read Comments
Category: Movies
Health:
 Seeders: n/a |  Leechers: n/a |  Completed: n/a
Torrent language: Hindi Hindi
Total Size: 2.7 GB
Uploader: McuDudeS Trusted Uploader Site Friend Superman Sun
Torrent added: 08-01-2019, 11:55:05
Views: 138



Extratorrent Download Torrent








The Usual Suspects (1995) 1080p 10bit Bluray x265 HEVC [Org DD+ 2.0 Hindi + DD 5.1 English] ESubs ~ {RoCK-HD-STAr}


Org Untouched DD+ 2.0 224 Kbps Hindi Audio By Hammer {Thanks}




Code:


General
Complete name                            : The Usual Suspects (1995) 1080p 10bit Bluray x265 HEVC [Org DD+ 2.0 Hindi + DD 5.1 English] ESubs ~ {RoCK-HD-STAr}.mkv
Format                                   : Matroska
Format version                           : Version 4
File size                                : 2.68 GiB
Duration                                 : 1 h 46 min
Overall bit rate                         : 3 610 kb/s
Movie name                               : The Usual Suspects (1995) 1080p 10bit Bluray x265 HEVC [Org DD+ 2.0 Hindi + DD 5.1 English] ESubs---The King Of Entertainment ~ {RoCK-HD-STAr}


Video
ID                                       : 1
Format                                   : HEVC
Format/Info                              : High Efficiency Video Coding
Format profile                           : Main [email protected]@Main
Codec ID                                 : V_MPEGH/ISO/HEVC
Duration                                 : 1 h 46 min
Bit rate                                 : 2 739 kb/s
Width                                    : 1 920 pixels
Height                                   : 816 pixels
Display aspect ratio                     : 2.35:1
Frame rate mode                          : Constant
Frame rate                               : 23.976 (24000/1001) FPS
Color space                              : YUV
Chroma subsampling                       : 4:2:0
Bit depth                                : 10 bits
Bits/(Pixel*Frame)                       : 0.073
Stream size                              : 2.03 GiB (76%)
Title                                    : {RoCK-HD-STAr}
Default                                  : Yes
Forced                                   : No

Audio #1
ID                                       : 3
Format                                   : E-AC-3
Format/Info                              : Enhanced AC-3
Commercial name                          : Dolby Digital Plus
Codec ID                                 : A_EAC3
Duration                                 : 1 h 46 min
Bit rate mode                            : Constant
Bit rate                                 : 224 kb/s
Channel(s)                               : 2 channels
Channel layout                           : L R
Sampling rate                            : 48.0 kHz
Frame rate                               : 31.250 FPS (1536 SPF)
Compression mode                         : Lossy
Stream size                              : 170 MiB (6%)
Title                                    : {RoCK-HD-STAr}
Language                                 : Hindi
Service kind                             : Complete Main
Default                                  : Yes
Forced                                   : No

Audio #2
ID                                       : 4
Format                                   : AC-3
Format/Info                              : Audio Coding 3
Commercial name                          : Dolby Digital
Codec ID                                 : A_AC3
Duration                                 : 1 h 46 min
Bit rate mode                            : Constant
Bit rate                                 : 640 kb/s
Channel(s)                               : 6 channels
Channel layout                           : L R C LFE Ls Rs
Sampling rate                            : 48.0 kHz
Frame rate                               : 31.250 FPS (1536 SPF)
Bit depth                                : 16 bits
Compression mode                         : Lossy
Stream size                              : 486 MiB (18%)
Title                                    : {RoCK-HD-STAr}
Language                                 : English
Service kind                             : Complete Main
Default                                  : No
Forced                                   : No

Text
ID                                       : 2
Format                                   : VobSub
Muxing mode                              : zlib
Codec ID                                 : S_VOBSUB
Codec ID/Info                            : Picture based subtitle format used on DVDs
Duration                                 : 1 h 38 min
Bit rate                                 : 13.5 kb/s
Count of elements                        : 1473
Stream size                              : 9.55 MiB (0%)
Title                                    : {RoCK-HD-STAr}
Language                                 : English
Default                                  : No
Forced                                   : No

Menu
00:00:00.000                             : en:Main Title
00:02:17.846                             : en:The Last Smoke
00:05:11.644                             : en:Rounding Up...
00:08:02.732                             : en:...the Usual Suspects
00:12:06.058                             : en:Five Guys in a Room
00:16:56.056                             : en:Two Survivors
00:18:00.079                             : en:Not an Interrogation
00:20:20.510                             : en:Hungarian Burn Victim
00:21:56.064                             : en:"I'm Smarter Than You"
00:26:03.478                             : en:After the Lineup
00:28:27.414                             : en:Convincing Keaton
00:31:20.461                             : en:Ny's Finest Taxi Service
00:34:47.043                             : en:The Fence in California
00:37:28.246                             : en:"Dean Keaton Was Dead"
00:39:37.958                             : en:He Saw the Devil
00:41:26.859                             : en:"There Was a Lawyer..."
00:43:07.209                             : en:Redfoot Makes an Offer
00:46:15.439                             : en:Bad Day for a Heist
00:50:39.661                             : en:"Who's Keyser Soze?"
00:51:56.321                             : en:Kobayashi
00:57:01.709                             : en:"a Gift From Mr. Soze"
00:59:13.258                             : en:One Day in Turkey
01:04:44.213                             : en:Finding Fenster
01:07:07.273                             : en:No Threat to Kobayashi
01:13:08.717                             : en:A Logistical Nightmare
01:14:18.036                             : en:Ready, Set, Shoot
01:22:31.738                             : en:A Rat Naming Names
01:23:37.804                             : en:No-Dope Boat
01:28:40.940                             : en:And Then There Was One
01:32:39.178                             : en:"He Was My Friend!"
01:37:55.744                             : en:The Writing on the Wall
01:42:39.528                             : en:End Credits
01:46:03.815                             : en:
















   


Related Torrents




Recent Searches

Home - Browse Torrents - Upload Torrent - Recent Torrents - Login - Register - FAQ

Can't load ExtraTorrent.Network
2006-2018 ExtraTorrent.Network