ExtraTorrent

Login   |   Register   |   Home
Browse Torrents
| Search Cloud | | | | | FAQ  
» » Blazing Saddles - Mezzogiorno e mezzo di fuoco (1974) 720p H264 italian english Ac3 sub ita-MIRCrew

Download Blazing Saddles - Mezzogiorno e mezzo di fuoco (1974) 720p H264 italian english Ac3 sub ita-MIRCrew extratorrent


Download torrent: Download Magnet Blazing Saddles - Mezzogiorno e mezzo di fuoco (1974) 720p H264 italian english Ac3 sub ita-MIRCrew
Info hash 0CC7E93EF5F207E5D7134AF62EDB088FD3E96D04
Torrent ID13980953
Comments: Sort Read Comments
Category: Movies
Health:
 Seeders: 13 |  Leechers: 1 |  Completed: 997
Torrent language: English English
Total Size: 1.6 GB
Uploader: robbyrs Trusted Uploader Site Friend Superman Sun
Torrent added: 08-01-2019, 12:40:05
Views: 36



Extratorrent Download Torrent

Blazing Saddles - Mezzogiorno e mezzo di fuoco (1974).720p.H264.italian.english.Ac3.sub.ita-MIRCrew NO FOUND ONLY ORIGINAL RELEASE My release is always in double track audio italian and Original audio for select it use VLC or dvd player home not use wmp Mezzogiorno e mezzo di fuoco - Blazing Saddles (1974) Quality MIRCrew on HD 720p da 1,6 gb Titolo originale Blazing Saddles Paese di produzione USA Anno 1974 Durata 93 min Rapporto 2,35:1 Genere comico, western Regia Mel Brooks Soggetto Andrew Bergman Sceneggiatura Mel Brooks, Andrew Bergman, Norman Steinberg, Richard Pryor, Alan Uger Cleavon Little: Bart Gene Wilder: Jim (Waco Kid) Harvey Korman: Hedley Lamarr Slim Pickens: Taggart Burton Gilliam: Lyle David Huddleston: Olson Johnson Liam Dunn: Reverendo Johnson Jack Starrett: Gabby Johnson John Hillerman: Howard Johnson George Furth: Van Johnson Alex Karras: Mongo Mel Brooks: Governatore William J. Le Petomane, capo indiano, aviatore del gruppo di criminali Madeline Kahn: Lili Von Shtupp Dom DeLuise: Buddy Bizarre Robert Ridgely: il boia La vicenda è ambientata in una località del sud degli Stati Uniti nell'anno 1874, anche se vi sono molti anacronismi voluti riferibili agli anni settanta. Durante la costruzione di una nuova linea ferroviaria, i cantieri incontrano una zona di sabbie mobili, e per questo il tracciato dovrà essere variato e passare vicino alla città di Rock Ridge. In order to ruin a western town, a corrupt politician appoints a black Sheriff, who promptly becomes his most formidable adversary. General Complete name : Mezzogiorno e mezzo di fuoco - Blazing Saddles (1974).720p.h264.ita.eng.sub.ita-MIRCrew mux by robbyrs\Mezzogiorno e mezzo di fuoco - Blazing Saddles (1974).720p.h264.ita.eng.sub.ita-MIRCrew mux by robbyrs.mkv Format : Matroska Format version : Version 2 File size : 1.60 GiB Duration : 1h 32mn Overall bit rate : 2 471 Kbps Movie name : MIRCrew Encoded date : UTC 2019-01-06T18:11:39Z Writing application : mkvmerge v5.4.0 ('Piper') built on Mar 10 2012 13:34:39 Writing library : Lavf55.12.0 DURATION : 01:32:51.808000000 NUMBER_OF_FRAMES : 174119 NUMBER_OF_BYTES : 133723392 _STATISTICS_WRITING_APP : mkvmerge v26.0.0 ('In The Game') 64-bit _STATISTICS_WRITING_DATE_UTC : 2019-01-06 21:55:39 _STATISTICS_TAGS : BPS DURATION NUMBER_OF_FRAMES NUMBER_OF_BYTES Video ID : 1 Format : AVC Format/Info : Advanced Video Codec Format profile : [email protected] Format settings, CABAC : Yes Format settings, ReFrames : 4 frames Codec ID : V_MPEG4/ISO/AVC Duration : 1h 32mn Bit rate : 1 900 Kbps Width : 1 280 pixels Height : 544 pixels Display aspect ratio : 2.35:1 Frame rate : 23.976 fps Color space : YUV Chroma subsampling : 4:2:0 Bit depth : 8 bits Scan type : Progressive Bits/(Pixel*Frame) : 0.114 Stream size : 1.20 GiB (75%) Title : MIRCrew Writing library : x264 core 142 r2479 dd79a61 Encoding settings : cabac=1 / ref=1 / deblock=1:-1:-1 / analyse=0x3:0x113 / me=hex / subme=2 / psy=1 / psy_rd=1.00:0.15 / mixed_ref=0 / me_range=16 / chroma_me=1 / trellis=0 / 8x8dct=1 / cqm=0 / deadzone=21,11 / fast_pskip=1 / chroma_qp_offset=0 / threads=6 / lookahead_threads=2 / sliced_threads=0 / nr=0 / decimate=1 / interlaced=0 / bluray_compat=0 / constrained_intra=0 / bframes=3 / b_pyramid=2 / b_adapt=1 / b_bias=0 / direct=1 / weightb=1 / open_gop=0 / weightp=1 / keyint=240 / keyint_min=24 / scenecut=40 / intra_refresh=0 / rc_lookahead=10 / rc=abr / mbtree=1 / bitrate=1900 / ratetol=1.0 / qcomp=0.60 / qpmin=0 / qpmax=69 / qpstep=4 / vbv_maxrate=62500 / vbv_bufsize=78125 / nal_hrd=none / filler=0 / ip_ratio=1.40 / aq=1:1.00 Language : Italian Default : Yes Forced : No DURATION : 01:32:54.569000000 NUMBER_OF_FRAMES : 133656 NUMBER_OF_BYTES : 1318954954 _STATISTICS_WRITING_APP : mkvmerge v26.0.0 ('In The Game') 64-bit _STATISTICS_WRITING_DATE_UTC : 2019-01-06 21:55:39 _STATISTICS_TAGS : BPS DURATION NUMBER_OF_FRAMES NUMBER_OF_BYTES Color primaries : BT.709-5, BT.1361, IEC 61966-2-4, SMPTE RP177 Transfer characteristics : BT.709-5, BT.1361 Matrix coefficients : BT.709-5, BT.1361, IEC 61966-2-4 709, SMPTE RP177 Audio #1 ID : 2 Format : AC-3 Format/Info : Audio Coding 3 Mode extension : CM (complete main) Codec ID : A_AC3 Duration : 1h 32mn Bit rate mode : Constant Bit rate : 192 Kbps Channel(s) : 2 channels Channel positions : Front: L R Sampling rate : 48.0 KHz Bit depth : 16 bits Compression mode : Lossy Delay relative to video : 1s 941ms Stream size : 128 MiB (8%) Title : Ita Ac3 Language : Italian Default : Yes Forced : No DURATION : 01:32:54.560000000 NUMBER_OF_FRAMES : 174205 NUMBER_OF_BYTES : 267578880 _STATISTICS_WRITING_APP : mkvmerge v26.0.0 ('In The Game') 64-bit _STATISTICS_WRITING_DATE_UTC : 2019-01-06 21:55:39 _STATISTICS_TAGS : BPS DURATION NUMBER_OF_FRAMES NUMBER_OF_BYTES Audio #2 ID : 3 Format : AC-3 Format/Info : Audio Coding 3 Mode extension : CM (complete main) Codec ID : A_AC3 Duration : 1h 32mn Bit rate mode : Constant Bit rate : 384 Kbps Channel(s) : 6 channels Channel positions : Front: L C R, Side: L R, LFE Sampling rate : 48.0 KHz Bit depth : 16 bits Compression mode : Lossy Delay relative to video : -5ms Stream size : 255 MiB (16%) Title : Eng Ac3 Language : English Default : No Forced : No Menu 00:00:00.000 : :Chapter 1 00:02:17.887 : :Chapter 2 00:05:59.567 : :Chapter 3 00:08:49.904 : :Chapter 4 00:13:08.871 : :Chapter 5 00:18:23.727 : :Chapter 6 00:21:45.178 : :Chapter 7 00:25:14.596 : :Chapter 8 00:30:21.152 : :Chapter 9 00:32:00.084 : :Chapter 10 00:40:51.615 : :Chapter 11 00:43:02.663 : :Chapter 12 00:48:25.986 : :Chapter 13 00:50:02.833 : :Chapter 14 00:52:45.996 : :Chapter 15 00:58:20.997 : :Chapter 16 01:01:24.097 : :Chapter 17 01:07:11.444 : :Chapter 18 01:11:53.392 : :Chapter 19 01:13:29.113 : :Chapter 20 01:17:22.471 : :Chapter 21 01:19:29.014 : :Chapter 22 01:20:38.834 : :Chapter 23 01:27:41.714 : :Chapter 24 01:32:16.614 : :Chapter 25


   


Related Torrents




Recent Searches

Home - Browse Torrents - Upload Torrent - Recent Torrents - Login - Register - FAQ

Can't load ExtraTorrent.Network
2006-2018 ExtraTorrent.Network