ExtraTorrent

Login   |   Register   |   Home
Browse Torrents
| Search Cloud | | | | | FAQ  
» » Komola Rocket 2018 Bengali 1080p WEB-DL x264 5 1 AAC { TaRa } mkv

Download Komola Rocket 2018 Bengali 1080p WEB-DL x264 5 1 AAC { TaRa } mkv extratorrent


Download torrent: Download Magnet Komola Rocket 2018 Bengali 1080p WEB-DL x264 5 1 AAC { TaRa } mkv
Info hash 2BBA950B242BD55735B3C7BD2243B4B2BA259B1F
Torrent ID13981014
Comments: Sort Read Comments
Category: Movies
Health:
 Seeders: 13 |  Leechers: 1 |  Completed: 181
Torrent language: Bengali/Bangla Bengali/Bangla
Total Size: 968.0 MB
Uploader: SkTara Trusted Uploader Site Friend Superman Sun
Torrent added: 08-01-2019, 15:40:07
Views: 54



Extratorrent Download Torrent https://www.youtube.com/results
https://www.youtube.com/results




Komola Rocket 2018 Bengali 1080p WEB-DL x264 5.1 AAC { TaRa }.mkv


===================================================================
General
Complete name : Komola Rocket 2018 Bengali 1080p WEB-DL x264 5.1 AAC { TaRa }.mkv
Format : Matroska
Format version : Version 4
File size : 968 MiB
Duration : 1 h 35 min
Overall bit rate : 1 418 kb/s
===================================================================
Video
ID : 1
Format : AVC
Format/Info : Advanced Video Codec
Format profile : [email protected]
Format settings : CABAC / 5 Ref Frames
Format settings, CABAC : Yes
Format settings, ReFrames : 5 frames
Codec ID : V_MPEG4/ISO/AVC
Duration : 1 h 35 min
Bit rate : 1 280 kb/s
Width : 1 920 pixels
Height : 1 080 pixels
Display aspect ratio : 16:9
Frame rate mode : Constant
Frame rate : 24.000 FPS
Color space : YUV
Chroma subsampling : 4:2:0
Bit depth : 8 bits
Scan type : Progressive
Bits/(Pixel*Frame) : 0.026
Stream size : 859 MiB (89%)
Title : .....::::: TaRa :::::.....
Language : Bengali
Default : Yes
Forced : No
===================================================================
Audio
ID : 2
Format : AAC LC
Format/Info : Advanced Audio Codec Low Complexity
Codec ID : A_AAC-2
Duration : 1 h 35 min
Bit rate : 158 kb/s
Channel(s) : 6 channels
Channel layout : C L R Ls Rs LFE
Sampling rate : 44.1 kHz
Frame rate : 43.066 FPS (1024 SPF)
Compression mode : Lossy
Stream size : 108 MiB (11%)
Title : .....::::: TaRa :::::.....
Language : Bengali
Default : Yes
Forced : No
===================================================================


































   


Related Torrents




Recent Searches

Home - Browse Torrents - Upload Torrent - Recent Torrents - Login - Register - FAQ

Can't load ExtraTorrent.Network
2006-2018 ExtraTorrent.Network