ExtraTorrent

Login   |   Register   |   Home





Browse Torrents
| Search Cloud | | | | | FAQ  

» » The Nutcracker and the Four Realms 2018 1080p BrRip x265

Loading...
Torrent Download                                Magnet Link                                      Watch Online


Download The Nutcracker and the Four Realms 2018 1080p BrRip x265 extratorrent


Download torrent:
Info hash 335E2F9939DD93F13AE83C532A53BB484363EB5E
Torrent ID13997736
Comments: Sort Read Comments
Category: Movies
Health:
 Seeders: 2 |  Leechers: 2 |  Completed: n/a
Torrent language: English English
Total Size: 921.6 MB
Uploader: g3m696 Trusted Uploader Site Friend Superman Sun
Torrent added: 05-02-2019, 16:10:06
Views: 450



Extratorrent Download Torrent 호두까기 인형 The Nutcracker (2010) 1080P …
https://torrentwal.com/torrent_movie/11427.html
دانلود فیلم The Nutcracker and the Four Realms 2018 ...
https://www.p30day.com/فیلم-the-nutcracker-and-the-four-realms...
The Pirate Bay - The galaxy's most resilient …
https://thepiratebay.org/search/nutcracker/0/99/0
The Pirate Bay - Video
https://thepiratebay.org/rss//top100/200
Cpasbien - Films
https://ww1.cpasbiens.to/torrents_films.html
The Pirate Bay - The galaxy's most resilient …
https://thepiratebay10.org/top/207
Popular 24 hours Movie Torrents | 1337x
https://www.1337x.one/popular-movies
토렌트영화 63 페이지 토렌트왈 - torrentwal.com
https://torrentwal.com/torrent_movie/torrent63.htm
The Pirate Bay - The galaxy's most resilient …
https://thepiratebay.vip/top/207
The Pirate Bay - The galaxy's most resilient …
https://thepiratebay.vip/top/200



hevcbay.com

Code:

General
Unique ID : 145506468404527320516244544591096929607 (0x6D7786C61904AD2C35F67CD3C8A35D47)
Complete name : The.Nutcracker.and.the.Four.Realms.2018.1080p.BrRip.x265.HEVCBay.com.mkv
Format : Matroska
Format version : Version 4
File size : 922 MiB
Duration : 1 h 39 min
Overall bit rate : 1 298 kb/s
Movie name : The.Nutcracker.and.the.Four.Realms.2018.1080p.BrRip.x265.HEVCBay.com.mkv
Encoded date : UTC 2019-02-05 07:24:28
Writing application : hevcbay
Writing library : hevcbay.com / Lavf58.22.100
Comment : Encoded by hevcbay.com
ENCODED-BY : hevcbay.com

Video
ID : 1
Format : HEVC
Format/Info : High Efficiency Video Coding
Format profile : [email protected]@Main
Codec ID : V_MPEGH/ISO/HEVC
Duration : 1 h 39 min
Bit rate : 1 248 kb/s
Width : 1 920 pixels
Height : 1 038 pixels
Display aspect ratio : 1.85:1
Frame rate mode : Constant
Frame rate : 23.976 (24000/1001) FPS
Color space : YUV
Chroma subsampling : 4:2:0
Bit depth : 8 bits
Bits/(Pixel*Frame) : 0.026
Stream size : 886 MiB (96%)
Writing library : Lavc58.40.100 libx265
Language : English
Default : Yes
Forced : No
Color range : Limited

Audio
ID : 2
Format : AAC LC SBR PS
Format/Info : Advanced Audio Codec Low Complexity with Spectral Band Replication and Parametric Stereo
Commercial name : HE-AACv2
Format settings : NBC
Codec ID : A_AAC-29
Duration : 1 h 39 min
Bit rate : 48.0 kb/s
Channel(s) : 2 channels
Channel layout : C
Sampling rate : 48.0 kHz
Frame rate : 23.438 FPS (2048 SPF)
Compression mode : Lossy
Delay relative to video : -148 ms
Stream size : 34.1 MiB (4%)
Writing library : Lavc58.40.100 libfdk_aac
Language : English
Default : Yes
Forced : No

Text #1
ID : 3
Format : UTF-8
Codec ID : S_TEXT/UTF8
Codec ID/Info : UTF-8 Plain Text
Duration : 1 h 27 min
Bit rate : 41 b/s
Count of elements : 1101
Stream size : 26.7 KiB (0%)
Title : Stripped SRT
Language : English
Default : No
Forced : No

Text #2
ID : 4
Format : UTF-8
Codec ID : S_TEXT/UTF8
Codec ID/Info : UTF-8 Plain Text
Duration : 1 h 36 min
Bit rate : 46 b/s
Count of elements : 1343
Stream size : 32.8 KiB (0%)
Title : SDH SRT
Language : English
Default : No
Forced : No







Related Torrents




Recent Searches

Home - Browse Torrents - Upload Torrent - Recent Torrents - Login - Register - FAQ

Can't load ExtraTorrent.Network
2006-2018 ExtraTorrent.Network