ExtraTorrent

Login   |   Register   |   Home





Browse Torrents
| Search Cloud | | | | | FAQ  

» » The Nutcracker and the Four Realms 2018 720p BrRip x265 HEVCBay

Loading...
Torrent Download                                Magnet Link                                      Watch Online


Download The Nutcracker and the Four Realms 2018 720p BrRip x265 HEVCBay extratorrent


Download torrent:
Info hash 20EDCED9AB5D266B7C1F257DAD525EC06B1920DA
Torrent ID13997737
Comments: Sort Read Comments
Category: Movies
Health:
 Seeders: 3 |  Leechers: 5 |  Completed: n/a
Torrent language: English English
Total Size: 522.4 MB
Uploader: g3m696 Trusted Uploader Site Friend Superman Sun
Torrent added: 05-02-2019, 16:10:06
Views: 294



Extratorrent Download Torrent



hevcbay.com

Code:

General
Unique ID : 1973995423080026540202287818654256479 (0x17C2D7D0FC83599C41AFD2F20768D5F)
Complete name : The.Nutcracker.and.the.Four.Realms.2018.720p.BrRip.x265.HEVCBay.com.mkv
Format : Matroska
Format version : Version 4
File size : 522 MiB
Duration : 1 h 39 min
Overall bit rate : 736 kb/s
Movie name : The.Nutcracker.and.the.Four.Realms.2018.720p.BrRip.x265.HEVCBay.com.mkv
Encoded date : UTC 2019-02-05 07:20:10
Writing application : hevcbay
Writing library : hevcbay.com / Lavf58.22.100
Comment : Encoded by hevcbay.com
ENCODED-BY : hevcbay.com

Video
ID : 1
Format : HEVC
Format/Info : High Efficiency Video Coding
Format profile : [email protected]@Main
Codec ID : V_MPEGH/ISO/HEVC
Duration : 1 h 39 min
Bit rate : 686 kb/s
Width : 1 280 pixels
Height : 692 pixels
Display aspect ratio : 1.85:1
Frame rate mode : Constant
Frame rate : 23.976 (24000/1001) FPS
Color space : YUV
Chroma subsampling : 4:2:0
Bit depth : 8 bits
Bits/(Pixel*Frame) : 0.032
Stream size : 487 MiB (93%)
Writing library : Lavc58.40.100 libx265
Language : English
Default : Yes
Forced : No
Color range : Limited

Audio
ID : 2
Format : AAC LC SBR PS
Format/Info : Advanced Audio Codec Low Complexity with Spectral Band Replication and Parametric Stereo
Commercial name : HE-AACv2
Format settings : NBC
Codec ID : A_AAC-29
Duration : 1 h 39 min
Bit rate : 48.0 kb/s
Channel(s) : 2 channels
Channel layout : C
Sampling rate : 48.0 kHz
Frame rate : 23.438 FPS (2048 SPF)
Compression mode : Lossy
Delay relative to video : -148 ms
Stream size : 34.1 MiB (7%)
Writing library : Lavc58.40.100 libfdk_aac
Language : English
Default : Yes
Forced : No

Text #1
ID : 3
Format : UTF-8
Codec ID : S_TEXT/UTF8
Codec ID/Info : UTF-8 Plain Text
Duration : 1 h 27 min
Bit rate : 41 b/s
Count of elements : 1101
Stream size : 26.7 KiB (0%)
Title : Stripped SRT
Language : English
Default : No
Forced : No

Text #2
ID : 4
Format : UTF-8
Codec ID : S_TEXT/UTF8
Codec ID/Info : UTF-8 Plain Text
Duration : 1 h 36 min
Bit rate : 46 b/s
Count of elements : 1343
Stream size : 32.8 KiB (0%)
Title : SDH SRT
Language : English
Default : No
Forced : No



https://extraimage.net/image/1aSM
https://extraimage.net/image/1aS9
https://extraimage.net/image/1aSU
https://extraimage.net/image/1aSz







Related Torrents




Recent Searches

Home - Browse Torrents - Upload Torrent - Recent Torrents - Login - Register - FAQ

Can't load ExtraTorrent.Network
2006-2018 ExtraTorrent.Network