Loading...
Loading...

ExtraTorrent

Login   |   Register   |   Home
Browse Torrents
| Search Cloud | | | | | FAQ  
» » The Nutcracker and the Four Realms 2018 1080p BrRip x265 HEVCBay com

Download The Nutcracker and the Four Realms 2018 1080p BrRip x265 HEVCBay com extratorrent


Download torrent: Download Magnet The Nutcracker and the Four Realms 2018 1080p BrRip x265 HEVCBay com
Info hash 335E2F9939DD93F13AE83C532A53BB484363EB5E
Torrent ID13997755
Comments: Sort Read Comments
Category: Movies
Health:
 Seeders: 5 |  Leechers: 2 |  Completed: 58
Torrent language: English English
Total Size: 921.6 MB
Uploader: g3m696 Trusted Uploader Site Friend Superman Sun
Torrent added: 05-02-2019, 17:00:06
Views: 67



Extratorrent Download Torrent



hevcbay.com

Code:

General
Unique ID                                : 145506468404527320516244544591096929607 (0x6D7786C61904AD2C35F67CD3C8A35D47)
Complete name                            : The.Nutcracker.and.the.Four.Realms.2018.1080p.BrRip.x265.HEVCBay.com.mkv
Format                                   : Matroska
Format version                           : Version 4
File size                                : 922 MiB
Duration                                 : 1 h 39 min
Overall bit rate                         : 1 298 kb/s
Movie name                               : The.Nutcracker.and.the.Four.Realms.2018.1080p.BrRip.x265.HEVCBay.com.mkv
Encoded date                             : UTC 2019-02-05 07:24:28
Writing application                      : hevcbay
Writing library                          : hevcbay.com / Lavf58.22.100
Comment                                  : Encoded by hevcbay.com
ENCODED-BY                               : hevcbay.com

Video
ID                                       : 1
Format                                   : HEVC
Format/Info                              : High Efficiency Video Coding
Format profile                           : [email protected]@Main
Codec ID                                 : V_MPEGH/ISO/HEVC
Duration                                 : 1 h 39 min
Bit rate                                 : 1 248 kb/s
Width                                    : 1 920 pixels
Height                                   : 1 038 pixels
Display aspect ratio                     : 1.85:1
Frame rate mode                          : Constant
Frame rate                               : 23.976 (24000/1001) FPS
Color space                              : YUV
Chroma subsampling                       : 4:2:0
Bit depth                                : 8 bits
Bits/(Pixel*Frame)                       : 0.026
Stream size                              : 886 MiB (96%)
Writing library                          : Lavc58.40.100 libx265
Language                                 : English
Default                                  : Yes
Forced                                   : No
Color range                              : Limited

Audio
ID                                       : 2
Format                                   : AAC LC SBR PS
Format/Info                              : Advanced Audio Codec Low Complexity with Spectral Band Replication and Parametric Stereo
Commercial name                          : HE-AACv2
Format settings                          : NBC
Codec ID                                 : A_AAC-29
Duration                                 : 1 h 39 min
Bit rate                                 : 48.0 kb/s
Channel(s)                               : 2 channels
Channel layout                           : C
Sampling rate                            : 48.0 kHz
Frame rate                               : 23.438 FPS (2048 SPF)
Compression mode                         : Lossy
Delay relative to video                  : -148 ms
Stream size                              : 34.1 MiB (4%)
Writing library                          : Lavc58.40.100 libfdk_aac
Language                                 : English
Default                                  : Yes
Forced                                   : No

Text #1
ID                                       : 3
Format                                   : UTF-8
Codec ID                                 : S_TEXT/UTF8
Codec ID/Info                            : UTF-8 Plain Text
Duration                                 : 1 h 27 min
Bit rate                                 : 41 b/s
Count of elements                        : 1101
Stream size                              : 26.7 KiB (0%)
Title                                    : Stripped SRT
Language                                 : English
Default                                  : No
Forced                                   : No

Text #2
ID                                       : 4
Format                                   : UTF-8
Codec ID                                 : S_TEXT/UTF8
Codec ID/Info                            : UTF-8 Plain Text
Duration                                 : 1 h 36 min
Bit rate                                 : 46 b/s
Count of elements                        : 1343
Stream size                              : 32.8 KiB (0%)
Title                                    : SDH SRT
Language                                 : English
Default                                  : No
Forced                                   : No






   


Related Torrents
Browse Movies Torrents Related Torrents added recently in our database RSS  
Added  Size  Sort S  Sort L  Sort Health
Download Magnet English  My_Big_Fat_Fabulous_Life_S06E08_Obsessive_Habits_480p_x264-m___ in TV, by EZTVag 6 minutes 240.3 MB 50278 68050
Download Magnet English  WWE_205_Live_2019_02_19_720p_WEB_h264-HEEL_[TJET] in TV, by EZZT 6 minutes 1.7 GB 3378 78865
Download Magnet English  Food_Truck_Nation_S01E07_Shrimp_Tacos_Mofongo_Pita_480p_x264___ in TV, by EZTVag 6 minutes 123.5 MB 86061 44270
Download Magnet English  Married_At_First_Sight_AU_S06E15_480p_x264-mSD_[eztv] in TV, by EZTVag 16 minutes 274.1 MB 545 79013
Download Magnet English  This_Is_Us_S03E13_720p_HDTV_x264-AVS in TV, by Cristie 16 minutes 801.5 MB 92508 27739
Download Magnet English  This_Is_Us_S03E13_HDTV_x264-SVA in TV, by Cristie 16 minutes 218.5 MB 33638 88220
Download Magnet English  Food_Truck_Nation_S01E07_Shrimp_Tacos_Mofongo_Pita_720p_WEBR___ in TV, by EZTVag 16 minutes 582.5 MB 26697 39280
Download Magnet English  Food_Truck_Nation_S01E07_Shrimp_Tacos_Mofongo_Pita_WEBRip_x2___ in TV, by EZTVag 16 minutes 211.3 MB 56613 84196
Download Magnet English  NCIS_S16E14_1080p_WEB_H264-AMCON[TGx] in TV, by mazemaze16 26 minutes 3.0 GB 27047 6073
Download Magnet English  My_Big_Fat_Fabulous_Life_S06E08_Obsessive_Habits_720p_WEB_x2___ in TV, by EZTVag 26 minutes 974.1 MB 6896 55680




Recent Searches

Home - Browse Torrents - Upload Torrent - Recent Torrents - Login - Register - FAQ

Can't load ExtraTorrent.Network
2006-2018 ExtraTorrent.Network