Website Shifted Kindly Click on Any Button to Enter This Site..





Loading...

                                                                                                                                 .







































































































































































ExtraTorrent

Login   |   Register   |   Home
Browse Torrents
| Search Cloud | | | | | FAQ  
» » Overlord (2018) x 800 (1080p) 5 1 - 2 0 x264 Phun Psyz

Download Overlord (2018) x 800 (1080p) 5 1 - 2 0 x264 Phun Psyz extratorrent


Download torrent: Download Magnet Overlord (2018) x 800 (1080p) 5 1 - 2 0 x264 Phun Psyz
Info hash D1C4C70A77219ECF0151B0A62F7E1992D369B707
Torrent ID13997780
Comments: Sort Read Comments
Category: Movies
Health:
 Seeders: 6 |  Leechers: 3 |  Completed: 17
Torrent language: English English
Total Size: 1.8 GB
Uploader: PhunPsyz Trusted Uploader Site Friend Superman Sun
Torrent added: 05-02-2019, 18:25:05
Views: 69



Extratorrent Download Torrent



www.imdb.com/title/tt4530422/

A small group of American soldiers find horror behind enemy lines on the eve of D-Day.

Source: NTG (Amzn)







Format : MPEG-4
Format profile : Base Media / Version 2
Codec ID : mp42 (isom/iso2/avc1/mp41)
File size : 1.82 GiB
Duration : 1 h 49 min
Overall bit rate mode : Variable
Overall bit rate : 2 379 kb/s

Video
ID : 1
Format : AVC
Format/Info : Advanced Video Codec
Format profile : [email protected]
Format settings : CABAC / 1 Ref Frames
Format settings, CABAC : Yes
Format settings, ReFrames : 1 frame
Codec ID : avc1
Codec ID/Info : Advanced Video Coding
Duration : 1 h 49 min
Bit rate : 1 891 kb/s
Width : 1 920 pixels
Height : 800 pixels
Display aspect ratio : 2.40:1
Frame rate : 23.976 (24000/1001) FPS
Color space : YUV
Chroma subsampling : 4:2:0
Bit depth : 8 bits
Scan type : Progressive
Bits/(Pixel*Frame) : 0.051
Stream size : 1.45 GiB (79%)
Writing library : x264 core 157 r2935 545de2f

Audio #1
ID : 2
Format : AC-3
Format/Info : Audio Coding 3
Commercial name : Dolby Digital
Codec ID : ac-3
Duration : 1 h 49 min
Bit rate mode : Constant
Bit rate : 320 kb/s
Channel(s) : 6 channels
Channel layout : L R C LFE Ls Rs
Sampling rate : 48.0 kHz
Frame rate : 31.250 FPS (1536 SPF)
Bit depth : 16 bits
Compression mode : Lossy
Stream size : 251 MiB (13%)
Title : Surround
Language : English

Audio #2
ID : 3
Format : AAC LC
Format/Info : Advanced Audio Codec Low Complexity
Codec ID : mp4a-40-2
Duration : 1 h 49 min
Bit rate mode : Constant
Bit rate : 161 kb/s
Channel(s) : 2 channels
Channel layout : L R
Sampling rate : 48.0 kHz
Frame rate : 46.875 FPS (1024 SPF)
Compression mode : Lossy
Stream size : 126 MiB (7%)
Title : Stereo
Language : English

Text
Language : English
Default : Yes
Forced : No





   


Related Torrents




Recent Searches

Home - Browse Torrents - Upload Torrent - Recent Torrents - Login - Register - FAQ

Can't load ExtraTorrent.Network
2006-2018 ExtraTorrent.Network