ExtraTorrent

Login   |   Register   |   Home





Browse Torrents
| Search Cloud | | | | | FAQ  

» » Lust Stories (2018) 720p WEBRip Hindi x264 ACC 5 1 MSubs- [email protected]

Loading...
Torrent Download                                Magnet Link                                      Watch Online


Download Lust Stories (2018) 720p WEBRip Hindi x264 ACC 5 1 MSubs- [email protected] extratorrent


Download torrent:
Info hash B3810A2A32CA9FAC82D803560BF8E105FA561023
Torrent ID13997782
Comments: Sort Read Comments
Category: Movies
Health:
 Seeders: 1 |  Leechers: n/a |  Completed: n/a
Torrent language: Hindi Hindi
Total Size: 1.3 GB
Uploader: LatestHDM Trusted Uploader Site Friend Superman Sun
Torrent added: 05-02-2019, 18:25:05
Views: 164



Extratorrent Download Torrent






https://Tellytorrent.Net ++++++++++++++++++ https://latesthdmovies.org/bollywood/lust-stories-2018/


General
Unique ID : 14989253999088517202231168020065889095 (0xB46D347A726F59A7F3AC8D3857D2B47)
Complete name : C:\Users\Jason\Documents\[LatestHDmovies.Org]-Lust.Stories.(2018).720p.WEBRip.Hindi.x264.AAC.5.1.MSubs.mkv
Format : Matroska
Format version : Version 4
File size : 1.27 GiB
Duration : 2 h 0 min
Overall bit rate : 1 508 kb/s
Movie name : Encoded By LatestHDmovies.Org
Encoded date : UTC 2019-02-05 18:03:11
Writing application : mkvmerge v29.0.0 ('Like It Or Not') 32-bit
Writing library : libebml v1.3.6 + libmatroska v1.4.9

Video
ID : 1
Format : AVC
Format/Info : Advanced Video Codec
Format profile : [email protected]
Format settings : CABAC / 4 Ref Frames
Format settings, CABAC : Yes
Format settings, RefFrames : 4 frames
Codec ID : V_MPEG4/ISO/AVC
Duration : 2 h 0 min
Bit rate : 1 186 kb/s
Width : 1 280 pixels
Height : 536 pixels
Display aspect ratio : 2.40:1
Frame rate mode : Constant
Frame rate : 24.000 FPS
Color space : YUV
Chroma subsampling : 4:2:0
Bit depth : 8 bits
Scan type : Progressive
Bits/(Pixel*Frame) : 0.072
Stream size : 1 022 MiB (79%)
Title : LatestHDmovies.Org
Writing library : x264 core 157 r2935 545de2f
Encoding settings : cabac=1 / ref=2 / deblock=1:0:0 / analyse=0x1:0x111 / me=hex / subme=6 / psy=1 / psy_rd=1.00:0.00 / mixed_ref=1 / me_range=16 / chroma_me=1 / trellis=1 / 8x8dct=0 / cqm=0 / deadzone=21,11 / fast_pskip=1 / chroma_qp_offset=-2 / threads=12 / lookahead_threads=2 / sliced_threads=0 / nr=0 / decimate=1 / interlaced=0 / bluray_compat=0 / constrained_intra=0 / bframes=3 / b_pyramid=2 / b_adapt=1 / b_bias=0 / direct=1 / weightb=1 / open_gop=0 / weightp=1 / keyint=240 / keyint_min=24 / scenecut=40 / intra_refresh=0 / rc_lookahead=30 / rc=2pass / mbtree=1 / bitrate=1186 / ratetol=1.0 / qcomp=0.60 / qpmin=0 / qpmax=69 / qpstep=4 / cplxblur=20.0 / qblur=0.5 / vbv_maxrate=14000 / vbv_bufsize=14000 / nal_hrd=none / filler=0 / ip_ratio=1.40 / aq=1:1.00
Default : Yes
Forced : No
Color range : Limited
Color primaries : BT.709
Transfer characteristics : BT.709
Matrix coefficients : BT.709

Audio
ID : 2
Format : AAC LC
Format/Info : Advanced Audio Codec Low Complexity
Codec ID : A_AAC-2
Duration : 2 h 0 min
Bit rate : 320 kb/s
Channel(s) : 6 channels
Channel layout : L R C Cb Rls Rb
Sampling rate : 48.0 kHz
Frame rate : 46.875 FPS (1024 SPF)
Compression mode : Lossy
Delay relative to video : -21 ms
Stream size : 276 MiB (21%)
Title : LatestHDmovies.Org
Language : Hindi
Default : Yes
Forced : No

Text #1
ID : 3
Format : UTF-8
Codec ID : S_TEXT/UTF8
Codec ID/Info : UTF-8 Plain Text
Duration : 1 h 56 min
Bit rate : 40 b/s
Count of elements : 1124
Stream size : 34.3 KiB (0%)
Title : LatestHDmovies.Org
Language : English
Default : Yes
Forced : Yes

Text #2
ID : 4
Format : UTF-8
Codec ID : S_TEXT/UTF8
Codec ID/Info : UTF-8 Plain Text
Duration : 1 h 56 min
Bit rate : 49 b/s
Count of elements : 1457
Stream size : 42.5 KiB (0%)
Title : LatestHDmovies.Org
Language : Spanish
Default : No
Forced : No

Text #3
ID : 5
Format : UTF-8
Codec ID : S_TEXT/UTF8
Codec ID/Info : UTF-8 Plain Text
Duration : 1 h 56 min
Bit rate : 53 b/s
Count of elements : 1443
Stream size : 45.3 KiB (0%)
Title : LatestHDmovies.Org
Language : German
Default : No
Forced : No

Text #4
ID : 6
Format : UTF-8
Codec ID : S_TEXT/UTF8
Codec ID/Info : UTF-8 Plain Text
Duration : 1 h 56 min
Bit rate : 46 b/s
Count of elements : 1449
Stream size : 39.9 KiB (0%)
Title : LatestHDmovies.Org
Language : Italian
Default : No
Forced : No

Text #5
ID : 7
Format : UTF-8
Codec ID : S_TEXT/UTF8
Codec ID/Info : UTF-8 Plain Text
Duration : 1 h 56 min
Bit rate : 51 b/s
Count of elements : 1450
Stream size : 43.9 KiB (0%)
Title : LatestHDmovies.Org
Language : French
Default : No
Forced : No
















Related Torrents




Recent Searches

Home - Browse Torrents - Upload Torrent - Recent Torrents - Login - Register - FAQ

Can't load ExtraTorrent.Network
2006-2018 ExtraTorrent.Network