ExtraTorrent

Login   |   Register   |   Home





Browse Torrents
| Search Cloud | | | | | FAQ  

» » Robin Hood (2018) x 800 (1080p) 5 1 - 2 0 x264 Phun Psyz

Loading...
Torrent Download                                Magnet Link                                      Watch Online


Download Robin Hood (2018) x 800 (1080p) 5 1 - 2 0 x264 Phun Psyz extratorrent


Download torrent:
Info hash 2B1579EA04CFBC2202992EC48F068065E5A6F71A
Torrent ID13997800
Comments: Sort Read Comments
Category: Movies
Health:
 Seeders: 1 |  Leechers: 3 |  Completed: n/a
Torrent language: English English
Total Size: 2.1 GB
Uploader: PhunPsyz Trusted Uploader Site Friend Superman Sun
Torrent added: 05-02-2019, 19:05:05
Views: 112



Extratorrent Download Torrent KickassTorrents Site Status, Kickass Proxy List
https://thekickasstorrents.com



www.imdb.com/title/tt4532826/

A war-hardened Crusader and his Moorish commander mount an audacious revolt against the corrupt English crown in a thrilling action-adventure packed with gritty battlefield exploits, mind-blowing fight choreography, and a timeless romance.

Source: NTG (Amzn)







Format : MPEG-4
Format profile : Base Media / Version 2
Codec ID : mp42 (isom/iso2/avc1/mp41)
File size : 2.08 GiB
Duration : 1 h 56 min
Overall bit rate mode : Variable
Overall bit rate : 2 561 kb/s

Video
ID : 1
Format : AVC
Format/Info : Advanced Video Codec
Format profile : [email protected]
Format settings : CABAC / 1 Ref Frames
Format settings, CABAC : Yes
Format settings, ReFrames : 1 frame
Codec ID : avc1
Codec ID/Info : Advanced Video Coding
Duration : 1 h 56 min
Bit rate : 2 073 kb/s
Width : 1 920 pixels
Height : 800 pixels
Display aspect ratio : 2.40:1
Frame rate : 23.976 (24000/1001) FPS
Color space : YUV
Chroma subsampling : 4:2:0
Bit depth : 8 bits
Scan type : Progressive
Bits/(Pixel*Frame) : 0.056
Stream size : 1.68 GiB (81%)
Writing library : x264 core 157 r2935 545de2f

Audio #1
ID : 2
Format : AC-3
Format/Info : Audio Coding 3
Commercial name : Dolby Digital
Codec ID : ac-3
Duration : 1 h 56 min
Bit rate mode : Constant
Bit rate : 320 kb/s
Channel(s) : 6 channels
Channel layout : L R C LFE Ls Rs
Sampling rate : 48.0 kHz
Frame rate : 31.250 FPS (1536 SPF)
Bit depth : 16 bits
Compression mode : Lossy
Stream size : 266 MiB (12%)
Title : Surround
Language : English

Audio #2
ID : 3
Format : AAC LC
Format/Info : Advanced Audio Codec Low Complexity
Codec ID : mp4a-40-2
Duration : 1 h 56 min
Bit rate mode : Constant
Bit rate : 161 kb/s
Channel(s) : 2 channels
Channel layout : L R
Sampling rate : 48.0 kHz
Frame rate : 46.875 FPS (1024 SPF)
Compression mode : Lossy
Stream size : 133 MiB (6%)
Title : Stereo
Language : English

Text
Language : English
Default : Yes
Forced : No







Related Torrents




Recent Searches

Home - Browse Torrents - Upload Torrent - Recent Torrents - Login - Register - FAQ

Can't load ExtraTorrent.Network
2006-2018 ExtraTorrent.Network