Website Shifted Kindly Click on Any Button to Enter This Site..





Loading...

                                                                                                                                 .







































































































































































ExtraTorrent

Login   |   Register   |   Home
Browse Torrents
| Search Cloud | | | | | FAQ  
» » A Star is Born 2018 1080p BluRay x264 DTS 5 1 MSubS - Hon3yHD

Download A Star is Born 2018 1080p BluRay x264 DTS 5 1 MSubS - Hon3yHD extratorrent


Download torrent: Download Magnet A Star is Born 2018 1080p BluRay x264 DTS 5 1 MSubS - Hon3yHD
Info hash B334D7700B40225EF1D95BF3D1CF43618410FBE9
Torrent ID13997837
Comments: Sort Read Comments
Category: Movies
Health:
 Seeders: 8 |  Leechers: 15 |  Completed: 173
Torrent language: English English
Total Size: 4.4 GB
Uploader: Hon3yHD Trusted Uploader Site Friend Superman Sun
Torrent added: 05-02-2019, 19:55:04
Views: 57



Extratorrent Download Torrent





A Star is Born 2018 1080p BluRay x264 DTS 5.1 MSubS - Hon3yHD

Source : BD50 @ Scene


Format : Matroska
Format version : Version 4 / Version 2
File size : 4.38 GiB
Duration : 2 h 15 min
Overall bit rate : 4 615 kb/s
Movie name : A Star is Born 2018 - Hon3yHD
Encoded date : UTC 2019-02-05 18:52:34
Writing application : mkvmerge v30.1.0 ('Forever And More') 64-bit
Writing library : libebml v1.3.6 + libmatroska v1.4.9

Video
ID : 1
Format : AVC
Format/Info : Advanced Video Codec
Format profile : [email protected]
Format settings, CABAC : Yes
Format settings, ReFrames : 5 frames
Codec ID : V_MPEG4/ISO/AVC
Duration : 2 h 15 min
Bit rate : 3 842 kb/s
Width : 1 920 pixels
Height : 800 pixels
Display aspect ratio : 2.40:1
Frame rate mode : Constant
Frame rate : 23.976 (24000/1001) FPS
Language : English
Default : Yes
Forced : No
Color range : Limited
Color primaries : BT.709
Transfer characteristics : BT.709
Matrix coefficients : BT.709

Audio
ID : 2
Format : DTS
Format/Info : Digital Theater Systems
Mode : 16
Format settings, Endianness : Big
Codec ID : A_DTS
Duration : 2 h 15 min
Bit rate mode : Constant
Bit rate : 768 kb/s
Channel(s) : 6 channels
Channel positions : Front: L C R, Side: L R, LFE
Sampling rate : 48.0 kHz
Frame rate : 93.750 FPS (512 spf)
Bit depth : 24 bits
Compression mode : Lossy
Stream size : 746 MiB (17%)
Language : English
Default : Yes
Forced : No

Text #1
ID : 3
Format : UTF-8
Codec ID : S_TEXT/UTF8
Codec ID/Info : UTF-8 Plain Text
Duration : 2 h 14 min
Bit rate : 65 b/s
Count of elements : 1922
Stream size : 64.3 KiB (0%)
Language : English
Default : Yes
Forced : No

Text #2
ID : 4
Format : UTF-8
Codec ID : S_TEXT/UTF8
Codec ID/Info : UTF-8 Plain Text
Duration : 2 h 15 min
Bit rate : 72 b/s
Count of elements : 2106
Stream size : 71.6 KiB (0%)
Title : SDH
Language : English
Default : No
Forced : No

Text #3
ID : 5
Format : UTF-8
Codec ID : S_TEXT/UTF8
Codec ID/Info : UTF-8 Plain Text
Duration : 2 h 15 min
Bit rate : 69 b/s
Count of elements : 2105
Stream size : 69.0 KiB (0%)
Title : SDH
Language : English
Default : No
Forced : No

Text #4
ID : 6
Format : UTF-8
Codec ID : S_TEXT/UTF8
Codec ID/Info : UTF-8 Plain Text
Duration : 2 h 14 min
Bit rate : 65 b/s
Count of elements : 1733
Stream size : 64.6 KiB (0%)
Language : Chinese
Default : No
Forced : No

Text #5
ID : 7
Format : UTF-8
Codec ID : S_TEXT/UTF8
Codec ID/Info : UTF-8 Plain Text
Duration : 2 h 14 min
Bit rate : 161 b/s
Count of elements : 1845
Stream size : 160 KiB (0%)
Language : Thai
Default : No
Forced : No

Text #6
ID : 8
Format : UTF-8
Codec ID : S_TEXT/UTF8
Codec ID/Info : UTF-8 Plain Text
Duration : 2 h 14 min
Bit rate : 62 b/s
Count of elements : 1841
Stream size : 61.8 KiB (0%)
Language : Turkish
Default : No
Forced : No

Text #7
ID : 9
Format : UTF-8
Codec ID : S_TEXT/UTF8
Codec ID/Info : UTF-8 Plain Text
Duration : 2 h 14 min
Bit rate : 61 b/s
Count of elements : 1831
Stream size : 61.2 KiB (0%)
Language : Portuguese
Default : No
Forced : No

Text #8
ID : 10
Format : UTF-8
Codec ID : S_TEXT/UTF8
Codec ID/Info : UTF-8 Plain Text
Duration : 2 h 14 min
Bit rate : 59 b/s
Count of elements : 1871
Stream size : 59.1 KiB (0%)
Language : Estonian
Default : No
Forced : No

Text #9
ID : 11
Format : UTF-8
Codec ID : S_TEXT/UTF8
Codec ID/Info : UTF-8 Plain Text
Duration : 2 h 14 min
Bit rate : 59 b/s
Count of elements : 1866
Stream size : 58.6 KiB (0%)
Language : Hungarian
Default : No
Forced : No

Text #10
ID : 12
Format : UTF-8
Codec ID : S_TEXT/UTF8
Codec ID/Info : UTF-8 Plain Text
Duration : 2 h 14 min
Bit rate : 95 b/s
Count of elements : 1561
Stream size : 94.4 KiB (0%)
Language : Russian
Default : No
Forced : No

Text #11
ID : 13
Format : UTF-8
Codec ID : S_TEXT/UTF8
Codec ID/Info : UTF-8 Plain Text
Duration : 2 h 14 min
Bit rate : 57 b/s
Count of elements : 1860
Stream size : 56.6 KiB (0%)
Language : Portuguese
Default : No
Forced : No

Text #12
ID : 14
Format : UTF-8
Codec ID : S_TEXT/UTF8
Codec ID/Info : UTF-8 Plain Text
Duration : 2 h 14 min
Bit rate : 57 b/s
Count of elements : 1809
Stream size : 56.4 KiB (0%)
Language : Lithuanian
Default : No
Forced : No

Text #13
ID : 15
Format : UTF-8
Codec ID : S_TEXT/UTF8
Codec ID/Info : UTF-8 Plain Text
Duration : 2 h 14 min
Bit rate : 90 b/s
Count of elements : 1845
Stream size : 89.2 KiB (0%)
Language : Bulgarian
Default : No
Forced : No

Text #14
ID : 16
Format : UTF-8
Codec ID : S_TEXT/UTF8
Codec ID/Info : UTF-8 Plain Text
Duration : 2 h 12 min
Bit rate : 59 b/s
Count of elements : 1750
Stream size : 57.7 KiB (0%)
Language : Chinese
Default : No
Forced : No

Text #15
ID : 17
Format : UTF-8
Codec ID : S_TEXT/UTF8
Codec ID/Info : UTF-8 Plain Text
Duration : 2 h 14 min
Bit rate : 53 b/s
Count of elements : 1600
Stream size : 52.8 KiB (0%)
Language : Icelandic
Default : No
Forced : No

Text #16
ID : 18
Format : UTF-8
Codec ID : S_TEXT/UTF8
Codec ID/Info : UTF-8 Plain Text
Duration : 2 h 14 min
Bit rate : 49 b/s
Count of elements : 1811
Stream size : 48.6 KiB (0%)
Language : Czech
Default : No
Forced : No

Text #17
ID : 19
Format : UTF-8
Codec ID : S_TEXT/UTF8
Codec ID/Info : UTF-8 Plain Text
Duration : 2 h 14 min
Bit rate : 77 b/s
Count of elements : 1845
Stream size : 77.0 KiB (0%)
Language : Hebrew
Default : No
Forced : No

Text #18
ID : 20
Format : UTF-8
Codec ID : S_TEXT/UTF8
Codec ID/Info : UTF-8 Plain Text
Duration : 2 h 14 min
Bit rate : 49 b/s
Count of elements : 1470
Stream size : 48.8 KiB (0%)
Language : Romanian
Default : No
Forced : No

Text #19
ID : 21
Format : UTF-8
Codec ID : S_TEXT/UTF8
Codec ID/Info : UTF-8 Plain Text
Duration : 2 h 14 min
Bit rate : 46 b/s
Count of elements : 1407
Stream size : 46.0 KiB (0%)
Language : Slovenian
Default : No
Forced : No

Text #20
ID : 22
Format : UTF-8
Codec ID : S_TEXT/UTF8
Codec ID/Info : UTF-8 Plain Text
Duration : 2 h 13 min
Bit rate : 72 b/s
Count of elements : 1444
Stream size : 70.5 KiB (0%)
Language : Arabic
Default : No
Forced : No

Menu
00:00:00.000 : :Captulo 01
00:08:03.316 : :Captulo 02
00:15:25.675 : :Captulo 03
00:20:26.100 : :Captulo 04
00:29:59.840 : :Captulo 05
00:36:07.832 : :Captulo 06
00:38:33.520 : :Captulo 07
00:49:23.669 : :Captulo 08
00:54:12.291 : :Captulo 09
00:56:41.648 : :Captulo 10
01:07:03.645 : :Captulo 11
01:15:37.533 : :Captulo 12
01:21:02.357 : :Captulo 13
01:24:22.015 : :Captulo 14
01:34:38.298 : :Captulo 15
01:43:44.802 : :Captulo 16
01:50:53.063 : :Captulo 17
02:01:20.607 : :Captulo 18
02:05:20.430 : :Captulo 19





   


Related Torrents
Browse Movies Torrents Related Torrents added recently in our database RSS  
Added  Size  Sort S  Sort L  Sort Health
Download Magnet English  1st_Summoning_2019_1080p_WEB-DL_H264_AC3-EVO[EtHD] in Movies, by EtHD 8 minutes 3.6 GB 99340 9294
Download Magnet English  Egg_2019_HDRip_XviD_AC3-EVO[EtMovies] in Movies, by EtHD 8 minutes 1.3 GB 1296 40386
Download Magnet English  Trading_Paint_2019_HDRip_XviD_AC3-EVO[TGx] in Movies, by mazemaze16 13 minutes 1.3 GB 60585 36600
Download Magnet English  1st_Summoning_2019_1080p_WEB-DL_H264_AC3-EVO[TGx] in Movies, by mazemaze16 13 minutes 3.6 GB 50966 52050
Download Magnet English  1st_Summoning_2019_HDRip_XviD_AC3-EVO[TGx] in Movies, by mazemaze16 13 minutes 1.4 GB 6903 96907
Download Magnet English  Vox_Lux_2018_BRRip_XviD_AC3-EVO[TGx] in Movies, by mazemaze16 13 minutes 1.3 GB 76370 7370
Download Magnet English  Vox_Lux_2018_LIMITED_1080p_BluRay_x264-DRONES[EtHD] in Movies, by EtHD 13 minutes 8.8 GB 55251 28840
Download Magnet English  House_Hunters_International_S135E05_A_Family_Adventure_in_Bu___ in TV, by EZTVag 13 minutes 202.1 MB 30042 58423
Download Magnet English  Trading_Paint_2019_1080p_WEB-DL_DD5_1_H264-CMRG[EtHD] in Movies, by EtHD 18 minutes 3.0 GB 46750 22420
Download Magnet English  Trading_Point_2019_HDRip_XviD_AC3-EVO[EtMovies] in Movies, by EtHD 18 minutes 1.3 GB 26629 44823




Recent Searches

Home - Browse Torrents - Upload Torrent - Recent Torrents - Login - Register - FAQ

Can't load ExtraTorrent.Network
2006-2018 ExtraTorrent.Network