ExtraTorrent

Login   |   Register   |   Home





Browse Torrents
| Search Cloud | | | | | FAQ  

» » At Eternitys Gate 2018 iTALiAN Subbed HDRiP XViD NeWZoNe

Loading...
Torrent Download                                Magnet Link                                      Watch Online


Download At Eternitys Gate 2018 iTALiAN Subbed HDRiP XViD NeWZoNe extratorrent


Download torrent:
Info hash 17C5D4A3D85089FCB24E04D4A5A4E5B571D0701C
Torrent ID13997954
Comments: Sort Read Comments
Category: Movies
Health:
 Seeders: 1 |  Leechers: n/a |  Completed: n/a
Torrent language: Italian Italian
Total Size: 1.6 GB
Uploader: xtotaptota Trusted Uploader Site Friend Superman Sun
Torrent added: 05-02-2019, 23:15:05
Views: 385



Extratorrent Download Torrent #MoViE_PaSSiOn
moviepassion.site



Van Gogh - Sulla soglia dell'eternità (2018).avi WEB-DL [Sub-ITA]





Dopo oltre vent'anni dall'uscita del film su Basquiat, il regista Julian Schnabel torna a raccontare la grande arte, questa volta portando sul grande schermo con Van Gogh - Sulla soglia dell'eternità gli ultimi e tormentati anni di Vincent Van Gogh. Un ritratto dell'irrequieto pittore olandese - qui interpretato da un sorprendete Willem Dafoe - dal burrascoso rapporto con Gauguin (Oscar Isaac) nel 1988 fino al colpo di pistola che gli ha tolto la vita a soli 37 anni. Un frangente di vita frenetico quello preso in considerazione, che ha portato a momenti molto produttivi e alla conseguente creazione di capolavori che hanno fatto la storia dell’arte e che tutt'oggi continuano a incantare il mondo intero.

VAN GOGH – Sulla soglia dell’eternità - Trailer Ufficiale Italiano





Willem Dafoe - Vincent Van Gogh
Rupert Friend - Theo Van Gogh
Oscar Isaac - Paul Gauguin
Mathieu Amalric - Dr. Paul Gachet
Emmanuelle Seigner - Madame Ginoux
Stella Schnabel - Gabby
Mads Mikkelsen - Il prete
Alan Aubert - Albert Aurier




ANNO: 2018
REGIA: Julian Schnabel
PAESE: Gran Bretagna, Francia, USA
SITO UFFICIALE: https://www.ateternitysgate-film.com/
SCENEGGIATURA: Jean-Claude Carrière, Julian Schnabel
FOTOGRAFIA: Benoît Delhomme
MONTAGGIO: Louise Kugelberg, Julian Schnabel
MUSICHE: Tatiana Lisovkaia


TITOLO ORIGINALE: At Eternity's Gate
IMDB: https://www.imdb.com/title/tt6938828/
DURATION: 1h 51m 17sec
GENERE: Biografico, Drammatico
QUALITA': WEB-DL
FORMATO: Avi
LINGUA: Inglese
SOTTOTITOLI: Italiano
IMMAGINE: 720x304 p.
TRACCE AUDIO: MP3 (Doppio) @ 128 kb/s , 2 channels
TRACCE VIDEO: XviD @ 1.918 kb/s
DIMENSIONE DEL FILE: 1.60 GiB








General
Complete name : E:\At.Eternitys.Gate.2018.iTALiAN.Subbed.HDRiP.XViD.NeWZoNe.avi
Format : AVI
Format/Info : Audio Video Interleave
Format profile : OpenDML
File size : 1.60 GiB
Duration : 1 h 51 min
Overall bit rate : 2 059 kb/s
Writing application : Lavf54.29.104

Video
ID : 0
Format : xvid
Codec ID : xvid
Duration : 1 h 51 min
Bit rate : 1 918 kb/s
Width : 720 pixels
Height : 304 pixels
Display aspect ratio : 2.35:1
Frame rate : 23.976 (24000/1001) FPS
Scan type : Progressive
Bits/(Pixel*Frame) : 0.365
Stream size : 1.49 GiB (93%)

Audio
ID : 1
Format : MPEG Audio
Format version : Version 1
Format profile : Layer 3
Mode : Joint stereo
Mode extension : MS Stereo
Codec ID : 55
Codec ID/Hint : MP3
Duration : 1 h 51 min
Bit rate mode : Constant
Bit rate : 128 kb/s
Channel(s) : 2 channels
Sampling rate : 48.0 kHz
Compression mode : Lossy
Stream size : 102 MiB (6%)
Alignment : Aligned on interleaves
Interleave, duration : 24 ms (0.58 video frame)

Text
ID : 2
Format : UTF-8
Codec ID : S_TEXT/UTF8
Codec ID/Info : UTF-8 Plain Text
Duration : 1 h 51 min
Bit rate : 36 b/s
Count of elements : 1229
Stream size : 36.2 KiB (0%)
Title : Italian [Full]
Language : Italian
Default : Yes
Forced : Yes







Related Torrents




Recent Searches

Home - Browse Torrents - Upload Torrent - Recent Torrents - Login - Register - FAQ

Can't load ExtraTorrent.Network
2006-2018 ExtraTorrent.Network