ExtraTorrent

Login   |   Register   |   Home





Browse Torrents
| Search Cloud | | | | | FAQ  

» » Scooby Doo and the Curse of the 13th Ghost (2019) 1080p 5 1 - 2 0 x264 Phun Psyz

Loading...
Torrent Download                                Magnet Link                                      Watch Online


Download Scooby Doo and the Curse of the 13th Ghost (2019) 1080p 5 1 - 2 0 x264 Phun Psyz extratorrent


Download torrent:
Info hash A1194AF640839F9BF18069BBC96719E857E824FC
Torrent ID13997960
Comments: Sort Read Comments
Category: Movies
Health:
 Seeders: 2 |  Leechers: n/a |  Completed: 210
Torrent language: English English
Total Size: 1.2 GB
Uploader: PhunPsyz Trusted Uploader Site Friend Superman Sun
Torrent added: 05-02-2019, 23:25:04
Views: 93



Extratorrent Download Torrent



www.imdb.com/title/tt9260980/

Scooby-Doo and the gang must track down the last of thirteen ghosts they had hunted years ago.

Source: CMRG







Format : MPEG-4
Format profile : Base Media / Version 2
Codec ID : mp42 (isom/iso2/avc1/mp41)
File size : 1.19 GiB
Duration : 1 h 22 min
Overall bit rate : 2 071 kb/s

Video
ID : 1
Format : AVC
Format/Info : Advanced Video Codec
Format profile : [email protected]
Format settings : CABAC / 1 Ref Frames
Format settings, CABAC : Yes
Format settings, ReFrames : 1 frame
Codec ID : avc1
Codec ID/Info : Advanced Video Coding
Duration : 1 h 22 min
Bit rate : 1 584 kb/s
Width : 1 912 pixels
Height : 1 072 pixels
Display aspect ratio : 16:9
Frame rate : 23.976 (24000/1001) FPS
Color space : YUV
Chroma subsampling : 4:2:0
Bit depth : 8 bits
Scan type : Progressive
Bits/(Pixel*Frame) : 0.032
Stream size : 930 MiB (76%)
Writing library : x264 core 157 r2935 545de2f

Audio #1
ID : 2
Format : AC-3
Format/Info : Audio Coding 3
Commercial name : Dolby Digital
Codec ID : ac-3
Duration : 1 h 21 min
Bit rate mode : Constant
Bit rate : 320 kb/s
Channel(s) : 6 channels
Channel layout : L R C LFE Ls Rs
Sampling rate : 48.0 kHz
Frame rate : 31.250 FPS (1536 SPF)
Bit depth : 16 bits
Compression mode : Lossy
Stream size : 188 MiB (15%)
Title : Surround
Language : English

Audio #2
ID : 3
Format : AAC LC
Format/Info : Advanced Audio Codec Low Complexity
Codec ID : mp4a-40-2
Duration : 1 h 21 min
Bit rate mode : Constant
Bit rate : 161 kb/s
Channel(s) : 2 channels
Channel layout : L R
Sampling rate : 48.0 kHz
Frame rate : 46.875 FPS (1024 SPF)
Compression mode : Lossy
Stream size : 94.2 MiB (8%)
Title : Stereo
Language : English







Related Torrents




Recent Searches

Home - Browse Torrents - Upload Torrent - Recent Torrents - Login - Register - FAQ

Can't load ExtraTorrent.Network
2006-2018 ExtraTorrent.Network