ExtraTorrent

Login   |   Register   |   Home





Browse Torrents
| Search Cloud | | | | | FAQ  

» » Alpha (2018)1080p Blu-Ray Rip Mp-4[DaScubaDude]

Loading...
Torrent Download                                Magnet Link                                      Watch Online


Download Alpha (2018)1080p Blu-Ray Rip Mp-4[DaScubaDude] extratorrent


Download torrent:
Info hash 508C0F37319BC6573AF4FD413288DC2ABB5706CA
Torrent ID13998061
Comments: Sort Read Comments
Category: Movies
Health:
 Seeders: 2 |  Leechers: 3 |  Completed: 2
Torrent language: English English
Total Size: 1.5 GB
Uploader: dascuba1337 Trusted Uploader Site Friend Superman Sun
Torrent added: 06-02-2019, 02:55:05
Views: 109



Extratorrent Download Torrent




IMDb Info for this film
[youtube]SlL_6bDSd8E[/youtube]
General
Complete name : ALPHA.theatrical.mp4
Format : MPEG-4
Format profile : Base Media / Version 2
Codec ID : mp42 (mp42/isom/avc1)
File size : 1.53 GiB
Duration : 1 h 36 min
Overall bit rate mode : Variable
Overall bit rate : 2 264 kb/s
Movie name : ALPHA.theatrical
Album : ALPHA
Encoded date : UTC 2019-02-05 23:27:47
Tagged date : UTC 2019-02-06 00:12:27
Writing application : DVDFab 11.0.1.5
Cover : Yes

Video
ID : 1
Format : AVC
Format/Info : Advanced Video Codec
Format profile : [email protected]
Format settings : CABAC / 2 Ref Frames
Format settings, CABAC : Yes
Format settings, RefFrames : 2 frames
Format settings, GOP : M=1, N=24
Codec ID : avc1
Codec ID/Info : Advanced Video Coding
Duration : 1 h 36 min
Source duration : 1 h 36 min
Bit rate mode : Variable
Bit rate : 1 808 kb/s
Maximum bit rate : 2 776 kb/s
Width : 1 920 pixels
Height : 804 pixels
Display aspect ratio : 2.40:1
Frame rate mode : Constant
Frame rate : 23.976 (24000/1001) FPS
Color space : YUV
Chroma subsampling : 4:2:0
Bit depth : 8 bits
Scan type : Progressive
Bits/(Pixel*Frame) : 0.049
Stream size : 1.22 GiB (80%)
Source stream size : 1.22 GiB (80%)
Encoded date : UTC 2019-02-05 23:27:47
Tagged date : UTC 2019-02-06 00:12:26
Color primaries : BT.709
Transfer characteristics : BT.709
Matrix coefficients : BT.709
Menus : 5

Audio
ID : 2
Format : AAC
Format/Info : Advanced Audio Codec
Format profile : LC
Codec ID : mp4a-40-2
Duration : 1 h 36 min
Bit rate mode : Variable
Bit rate : 451 kb/s
Channel(s) : 6 channels
Channel positions : Front: L C R, Side: L R, LFE
Sampling rate : 48.0 kHz
Frame rate : 46.875 FPS (1024 SPF)
Compression mode : Lossy
Stream size : 309 MiB (20%)
Title : English (aac 5.1)
Language : English
Default : Yes
Alternate group : 1
Encoded date : UTC 2019-02-05 23:27:47
Tagged date : UTC 2019-02-06 00:12:27







Related Torrents




Recent Searches

Home - Browse Torrents - Upload Torrent - Recent Torrents - Login - Register - FAQ

Can't load ExtraTorrent.Network
2006-2018 ExtraTorrent.Network