ExtraTorrent

Login   |   Register   |   Home





Browse Torrents
| Search Cloud | | | | | FAQ  

» » Robin Hood 2018 720p WEB-DL x265 HEVCBay com

Loading...
Torrent Download                                Magnet Link                                      Watch Online


Download Robin Hood 2018 720p WEB-DL x265 HEVCBay com extratorrent


Download torrent:
Info hash 131C0F477D19169EC2C264D547984AD7928A610B
Torrent ID13998078
Comments: Sort Read Comments
Category: Movies
Health:
 Seeders: 3 |  Leechers: 1 |  Completed: n/a
Torrent language: English English
Total Size: 519.2 MB
Uploader: g3m696 Trusted Uploader Site Friend Superman Sun
Torrent added: 06-02-2019, 03:25:05
Views: 111



Extratorrent Download Torrent



hevcbay.com

Code:

General
Unique ID                                : 137766596788818755414067420736755172307 (0x67A4E1A4086112D4AAF87385606183D3)
Complete name                            : Robin.Hood.2018.720p.WEB-DL.x265.HEVCBay.com.mkv
Format                                   : Matroska
Format version                           : Version 4
File size                                : 519 MiB
Duration                                 : 1 h 56 min
Overall bit rate                         : 625 kb/s
Movie name                               : Robin.Hood.2018.720p.WEB-DL.x265.HEVCBay.com.mkv
Encoded date                             : UTC 2019-02-05 12:28:19
Writing application                      : hevcbay
Writing library                          : hevcbay.com / Lavf58.22.100
Comment                                  : Encoded by hevcbay.com
ENCODED-BY                               : hevcbay.com

Video
ID                                       : 1
Format                                   : HEVC
Format/Info                              : High Efficiency Video Coding
Format profile                           : [email protected]@Main
Codec ID                                 : V_MPEGH/ISO/HEVC
Duration                                 : 1 h 56 min
Bit rate                                 : 569 kb/s
Width                                    : 1 280 pixels
Height                                   : 532 pixels
Display aspect ratio                     : 2.40:1
Frame rate mode                          : Constant
Frame rate                               : 23.976 (23976/1000) FPS
Color space                              : YUV
Chroma subsampling                       : 4:2:0
Bit depth                                : 8 bits
Bits/(Pixel*Frame)                       : 0.035
Stream size                              : 473 MiB (91%)
Writing library                          : Lavc58.40.100 libx265
Language                                 : English
Default                                  : Yes
Forced                                   : No
Color range                              : Limited

Audio
ID                                       : 2
Format                                   : AAC LC SBR PS
Format/Info                              : Advanced Audio Codec Low Complexity with Spectral Band Replication and Parametric Stereo
Commercial name                          : HE-AACv2
Format settings                          : NBC
Codec ID                                 : A_AAC-29
Duration                                 : 1 h 56 min
Bit rate                                 : 53.9 kb/s
Channel(s)                               : 2 channels
Channel layout                           : C
Sampling rate                            : 48.0 kHz
Frame rate                               : 23.438 FPS (2048 SPF)
Compression mode                         : Lossy
Delay relative to video                  : -148 ms
Stream size                              : 44.8 MiB (9%)
Writing library                          : Lavc58.40.100 libfdk_aac
Language                                 : English
Default                                  : Yes
Forced                                   : No



https://imgpile.com/i/1R3uA1
https://imgpile.com/i/1R37eL
https://imgpile.com/i/1R3UCx
https://imgpile.com/i/1R3w8j







Related Torrents
Browse Movies Torrents Related Torrents added recently in our database RSS  
Added  Size  Sort S  Sort L  Sort Health
Download Magnet English  Once_Upon_a_Time_in_London_2019_1080p_AMZN_x265_6CH_ReEnc-LU___ in Movies, by lumi265 8 minutes 1.7 GB 83912 52278
Download Magnet Serbian  Drzavni_Sluzbenik_S01E06_720p_HDTV_x264_-_ExYuSubs in TV, by Botanicar 8 minutes 749.0 MB 95078 82073
Download Magnet English  Eastenders_22nd_Apr__2019_1080p_(Deep61)_[WWRG] in TV, by Deep61 18 minutes 845.3 MB 88935 1507
Download Magnet English  Game_of_Thrones_S08E01_1080p_Webrip_HEVC_5_1_Omikron in TV, by OmiChannel 28 minutes 626.1 MB 56433 69004
Download Magnet German  The_Comedy_(2012)_[BluRay]_[720p]_[YTS]_[YIFY] in Movies, by YTSAGx 38 minutes 785.0 MB 7621 7361
Download Magnet English  The_Band_-_The_Last_Waltz_(1978)_1080p_BluRay_x264_DTS-HD_MA___ in Music, by Sartre 38 minutes 7.1 GB 42650 78678
Download Magnet English  House_of_Anubis_Season_1_720p_x264_Jassy in TV, by rahallivex1 43 minutes 6.1 GB 94997 98860
Download Magnet English  Bar_Rescue_S06E32_480p_x264-mSD_[eztv] in TV, by EZTVag 43 minutes 211.1 MB 22176 85267
Download Magnet English  Cops_S31E30_720p_WEB_x264-CookieMonster_[eztv] in TV, by EZTVag 43 minutes 439.4 MB 36169 782
Download Magnet Spanish  Madre_2017_REPACK_720p_WEB-DL_h264_AC3-DEEP in Movies, by m1337e 43 minutes 328.2 MB 70107 9847




Recent Searches

Home - Browse Torrents - Upload Torrent - Recent Torrents - Login - Register - FAQ

Can't load ExtraTorrent.Network
2006-2018 ExtraTorrent.Network