Website Shifted Kindly Click on Any Button to Enter This Site..





Loading...

                                                                                                                                 .







































































































































































ExtraTorrent

Login   |   Register   |   Home
Browse Torrents
| Search Cloud | | | | | FAQ  
» » Robin Hood 2018 720p WEB-DL x265

Download Robin Hood 2018 720p WEB-DL x265 extratorrent


Download torrent: Download Magnet Robin Hood 2018 720p WEB-DL x265
Info hash 131C0F477D19169EC2C264D547984AD7928A610B
Torrent ID13998084
Comments: Sort Read Comments
Category: Movies
Health:
 Seeders: 7 |  Leechers: 4 |  Completed: 61
Torrent language: English English
Total Size: 519.2 MB
Uploader: g3m696 Trusted Uploader Site Friend Superman Sun
Torrent added: 06-02-2019, 03:35:05
Views: 59



Extratorrent Download Torrent HDEncode – Download Movies and TV Shows
https://hdencode.com/page/2
LIGHT DOWNLOADS: Power
www.lightdl.xyz/2016/09/power.html
Daybreak 1993 AMZN 1080p WEB-DL DD2.0 …
uhdmv.org › WEB-DL/HDTV 1080p/720p
List TV Series By Genres | Pahe.in
https://pahe.in/list-tv-series-by-genres



hevcbay.com

Code:

General
Unique ID                                : 137766596788818755414067420736755172307 (0x67A4E1A4086112D4AAF87385606183D3)
Complete name                            : Robin.Hood.2018.720p.WEB-DL.x265.HEVCBay.com.mkv
Format                                   : Matroska
Format version                           : Version 4
File size                                : 519 MiB
Duration                                 : 1 h 56 min
Overall bit rate                         : 625 kb/s
Movie name                               : Robin.Hood.2018.720p.WEB-DL.x265.HEVCBay.com.mkv
Encoded date                             : UTC 2019-02-05 12:28:19
Writing application                      : hevcbay
Writing library                          : hevcbay.com / Lavf58.22.100
Comment                                  : Encoded by hevcbay.com
ENCODED-BY                               : hevcbay.com

Video
ID                                       : 1
Format                                   : HEVC
Format/Info                              : High Efficiency Video Coding
Format profile                           : [email protected]@Main
Codec ID                                 : V_MPEGH/ISO/HEVC
Duration                                 : 1 h 56 min
Bit rate                                 : 569 kb/s
Width                                    : 1 280 pixels
Height                                   : 532 pixels
Display aspect ratio                     : 2.40:1
Frame rate mode                          : Constant
Frame rate                               : 23.976 (23976/1000) FPS
Color space                              : YUV
Chroma subsampling                       : 4:2:0
Bit depth                                : 8 bits
Bits/(Pixel*Frame)                       : 0.035
Stream size                              : 473 MiB (91%)
Writing library                          : Lavc58.40.100 libx265
Language                                 : English
Default                                  : Yes
Forced                                   : No
Color range                              : Limited

Audio
ID                                       : 2
Format                                   : AAC LC SBR PS
Format/Info                              : Advanced Audio Codec Low Complexity with Spectral Band Replication and Parametric Stereo
Commercial name                          : HE-AACv2
Format settings                          : NBC
Codec ID                                 : A_AAC-29
Duration                                 : 1 h 56 min
Bit rate                                 : 53.9 kb/s
Channel(s)                               : 2 channels
Channel layout                           : C
Sampling rate                            : 48.0 kHz
Frame rate                               : 23.438 FPS (2048 SPF)
Compression mode                         : Lossy
Delay relative to video                  : -148 ms
Stream size                              : 44.8 MiB (9%)
Writing library                          : Lavc58.40.100 libfdk_aac
Language                                 : English
Default                                  : Yes
Forced                                   : No



https://extraimage.net/image/1aJX
https://extraimage.net/image/1aJg
https://extraimage.net/image/1aJF
https://extraimage.net/image/1aJD





   


Related Torrents




Recent Searches

Home - Browse Torrents - Upload Torrent - Recent Torrents - Login - Register - FAQ

Can't load ExtraTorrent.Network
2006-2018 ExtraTorrent.Network