ExtraTorrent

Login   |   Register   |   Home





Browse Torrents
| Search Cloud | | | | | FAQ  

» » Phir Se (2015) 720p WEBRip Hindi x264 ACC 5 1 ESubs- [email protected]

Loading...
Torrent Download                                Magnet Link                                      Watch Online


Download Phir Se (2015) 720p WEBRip Hindi x264 ACC 5 1 ESubs- [email protected] extratorrent


Download torrent:
Info hash DE0ADC6E73D5E8B0C449140D23B0D21FCFA213CD
Torrent ID13998107
Comments: Sort Read Comments
Category: Movies
Health:
 Seeders: 1 |  Leechers: n/a |  Completed: n/a
Torrent language: Spanish Spanish
Total Size: 1.3 GB
Uploader: LatestHDM Trusted Uploader Site Friend Superman Sun
Torrent added: 06-02-2019, 04:15:06
Views: 119



Extratorrent Download Torrent






https://Tellytorrent.Net++++++++++++++++++ https://latesthdmovies.org/bollywood/phir-se-2015/


General
Unique ID : 83113133373166524562571993976312672513 (0x3E8701DA0E615F814492000882CFB101)
Complete name : C:\Users\Jason\Documents\[LatestHDmovies.Org]-Phir.Se.(2015).720p.WEBRip.Hindi.x264.AAC.5.1.ESub.mkv
Format : Matroska
Format version : Version 4
File size : 1.27 GiB
Duration : 1 h 58 min
Overall bit rate : 1 537 kb/s
Movie name : Encoded By LatestHDmovies.Org
Encoded date : UTC 2019-02-06 03:10:00
Writing application : mkvmerge v29.0.0 ('Like It Or Not') 32-bit
Writing library : libebml v1.3.6 + libmatroska v1.4.9

Video
ID : 1
Format : AVC
Format/Info : Advanced Video Codec
Format profile : [email protected]
Format settings : CABAC / 4 Ref Frames
Format settings, CABAC : Yes
Format settings, RefFrames : 4 frames
Codec ID : V_MPEG4/ISO/AVC
Duration : 1 h 58 min
Bit rate : 1 215 kb/s
Width : 1 280 pixels
Height : 544 pixels
Display aspect ratio : 2.35:1
Frame rate mode : Constant
Frame rate : 24.000 FPS
Color space : YUV
Chroma subsampling : 4:2:0
Bit depth : 8 bits
Scan type : Progressive
Bits/(Pixel*Frame) : 0.073
Stream size : 1.00 GiB (79%)
Title : LatestHDmovies.Org
Writing library : x264 core 157 r2935 545de2f
Encoding settings : cabac=1 / ref=2 / deblock=1:0:0 / analyse=0x1:0x111 / me=hex / subme=6 / psy=1 / psy_rd=1.00:0.00 / mixed_ref=1 / me_range=16 / chroma_me=1 / trellis=1 / 8x8dct=0 / cqm=0 / deadzone=21,11 / fast_pskip=1 / chroma_qp_offset=-2 / threads=12 / lookahead_threads=2 / sliced_threads=0 / nr=0 / decimate=1 / interlaced=0 / bluray_compat=0 / constrained_intra=0 / bframes=3 / b_pyramid=2 / b_adapt=1 / b_bias=0 / direct=1 / weightb=1 / open_gop=0 / weightp=1 / keyint=240 / keyint_min=24 / scenecut=40 / intra_refresh=0 / rc_lookahead=30 / rc=2pass / mbtree=1 / bitrate=1215 / ratetol=1.0 / qcomp=0.60 / qpmin=0 / qpmax=69 / qpstep=4 / cplxblur=20.0 / qblur=0.5 / vbv_maxrate=14000 / vbv_bufsize=14000 / nal_hrd=none / filler=0 / ip_ratio=1.40 / aq=1:1.00
Default : Yes
Forced : No
Color range : Limited
Color primaries : BT.709
Transfer characteristics : BT.709
Matrix coefficients : BT.709

Audio
ID : 2
Format : AAC LC
Format/Info : Advanced Audio Codec Low Complexity
Codec ID : A_AAC-2
Duration : 1 h 58 min
Bit rate : 320 kb/s
Channel(s) : 6 channels
Channel layout : L R C Cb Rls Rb
Sampling rate : 48.0 kHz
Frame rate : 46.875 FPS (1024 SPF)
Compression mode : Lossy
Delay relative to video : -21 ms
Stream size : 271 MiB (21%)
Title : LatestHDmovies.Org
Language : Hindi
Default : Yes
Forced : No

Text
ID : 3
Format : UTF-8
Codec ID : S_TEXT/UTF8
Codec ID/Info : UTF-8 Plain Text
Duration : 1 h 52 min
Bit rate : 70 b/s
Count of elements : 1847
Stream size : 57.9 KiB (0%)
Title : LatestHDmovies.Org
Default : Yes
Forced : No
















Related Torrents
Browse Movies Torrents Related Torrents added recently in our database RSS  
Added  Size  Sort S  Sort L  Sort Health
Download Magnet English  Once_Upon_a_Time_in_London_2019_1080p_AMZN_x265_6CH_ReEnc-LU___ in Movies, by lumi265 8 minutes 1.7 GB 98808 58213
Download Magnet Serbian  Drzavni_Sluzbenik_S01E06_720p_HDTV_x264_-_ExYuSubs in TV, by Botanicar 8 minutes 749.0 MB 61412 93288
Download Magnet English  Eastenders_22nd_Apr__2019_1080p_(Deep61)_[WWRG] in TV, by Deep61 18 minutes 845.3 MB 10197 504
Download Magnet English  Game_of_Thrones_S08E01_1080p_Webrip_HEVC_5_1_Omikron in TV, by OmiChannel 28 minutes 626.1 MB 35975 99301
Download Magnet German  The_Comedy_(2012)_[BluRay]_[720p]_[YTS]_[YIFY] in Movies, by YTSAGx 38 minutes 785.0 MB 86724 13497
Download Magnet English  The_Band_-_The_Last_Waltz_(1978)_1080p_BluRay_x264_DTS-HD_MA___ in Music, by Sartre 38 minutes 7.1 GB 13722 74909
Download Magnet English  House_of_Anubis_Season_1_720p_x264_Jassy in TV, by rahallivex1 43 minutes 6.1 GB 81885 57510
Download Magnet English  Bar_Rescue_S06E32_480p_x264-mSD_[eztv] in TV, by EZTVag 43 minutes 211.1 MB 55832 56765
Download Magnet English  Cops_S31E30_720p_WEB_x264-CookieMonster_[eztv] in TV, by EZTVag 43 minutes 439.4 MB 60382 11430
Download Magnet Spanish  Madre_2017_REPACK_720p_WEB-DL_h264_AC3-DEEP in Movies, by m1337e 43 minutes 328.2 MB 80487 10666




Recent Searches

Home - Browse Torrents - Upload Torrent - Recent Torrents - Login - Register - FAQ

Can't load ExtraTorrent.Network
2006-2018 ExtraTorrent.Network