ExtraTorrent

Login   |   Register   |   Home





Browse Torrents
| Search Cloud | | | | | FAQ  

» » The Good Doctor S02E14 Faces 1080p Webrip x265 EAC3 5 1 Goki [SEV]

Loading...
Torrent Download                                Magnet Link                                      Watch Online


Download The Good Doctor S02E14 Faces 1080p Webrip x265 EAC3 5 1 Goki [SEV] extratorrent


Download torrent:
Info hash 46DBCF99915A793EFD11A8BB0AF8CA69D036C52F
Torrent ID13998117
Comments: Sort Read Comments
Category: TV
Health:
 Seeders: 2 |  Leechers: 1 |  Completed: n/a
Torrent language: English English
Total Size: 1.2 GB
Uploader: Goki Trusted Uploader Site Friend Superman Sun
Torrent added: 06-02-2019, 04:35:04
Views: 87



Extratorrent Download Torrent











Media Information



Unique ID : 175340283900690225457565410454491687529 (0x83E94F714612B7A9B5697536DA68EA69)
Complete name : The Good Doctor S02E14 Faces 1080p Webrip x265 EAC3 5.1 Goki [SEV].mkv
Format : Matroska
Format version : Version 4
File size : 1.15 GiB
Duration : 43 min 2 s
Overall bit rate : 3 836 kb/s
Encoded date : UTC 2019-02-05 20:25:29
Writing application : mkvmerge v13.0.0 ('The Juggler') 64bit
Writing library : libebml v1.3.4 + libmatroska v1.4.5 / Lavf57.73.100
Writing application : Internet Friendly Media Encoder v7.7 ('Prism Ark')
Writing library : IFME v7.7 amd64 windows

Video
ID : 1
Format : HEVC
Format/Info : High Efficiency Video Coding
Format profile : Main [email protected]@Main
Codec ID : V_MPEGH/ISO/HEVC
Duration : 43 min 2 s
Bit rate : 3 120 kb/s
Width : 1 920 pixels
Height : 1 080 pixels
Display aspect ratio : 16:9
Frame rate mode : Constant
Frame rate : 23.976 (24000/1001) FPS
Color space : YUV
Chroma subsampling : 4:2:0
Bit depth : 10 bits
Bits/(Pixel*Frame) : 0.063
Stream size : 961 MiB (81%)
Writing library : x265 2.9+8-27d8424c799d:[Windows][MSVC 1915][64 bit] 10bit
Encoding settings : cpuid=1111039 / frame-threads=3 / numa-pools=8 / wpp / no-pmode / no-pme / no-psnr / no-ssim / log-level=2 / input-csp=1 / input-res=1920x1080 / interlace=0 / total-frames=0 / level-idc=0 / high-tier=1 / uhd-bd=0 / ref=4 / no-allow-non-conformance / no-repeat-headers / annexb / no-aud / no-hrd / info / hash=0 / no-temporal-layers / open-gop / min-keyint=23 / keyint=250 / gop-lookahead=0 / bframes=8 / b-adapt=2 / b-pyramid / bframe-bias=0 / rc-lookahead=100 / lookahead-slices=4 / scenecut=40 / radl=0 / no-intra-refresh / ctu=64 / min-cu-size=8 / no-rect / no-amp / max-tu-size=32 / tu-inter-depth=1 / tu-intra-depth=1 / limit-tu=0 / rdoq-level=2 / dynamic-rd=0.00 / no-ssim-rd / signhide / no-tskip / nr-intra=0 / nr-inter=0 / no-constrained-intra / no-strong-intra-smoothing / max-merge=3 / limit-refs=3 / limit-modes / me=3 / subme=5 / merange=57 / temporal-mvp / weightp / no-weightb / no-analyze-src-pics / deblock=0:0 / sao / no-sao-non-deblock / rd=4 / no-early-skip / rskip / no-fast-intra / no-tskip-fast / no-cu-lossless / no-b-intra / no-splitrd-skip / rdpenalty=0 / psy-rd=1.30 / psy-rdoq=2.00 / no-rd-refine / no-lossless / cbqpoffs=0 / crqpoffs=0 / rc=crf / crf=20.0 / qcomp=0.60 / qpstep=4 / stats-write=0 / stats-read=0 / ipratio=1.40 / pbratio=1.30 / aq-mode=2 / aq-strength=1.10 / cutree / zone-count=0 / no-strict-cbr / qg-size=32 / no-rc-grain / qpmax=69 / qpmin=0 / no-const-vbv / sar=1 / overscan=0 / videoformat=5 / range=0 / colorprim=2 / transfer=2 / colormatrix=2 / chromaloc=0 / display-window=0 / max-cll=0,0 / min-luma=0 / max-luma=1023 / log2-max-poc-lsb=8 / vui-timing-info / vui-hrd-info / slices=1 / no-opt-qp-pps / no-opt-ref-list-length-pps / no-multi-pass-opt-rps / scenecut-bias=0.05 / no-opt-cu-delta-qp / no-aq-motion / no-hdr / no-hdr-opt / no-dhdr10-opt / no-idr-recovery-sei / analysis-reuse-level=5 / scale-factor=0 / refine-intra=0 / refine-inter=0 / refine-mv=0 / no-limit-sao / ctu-info=0 / no-lowpass-dct / refine-mv-type=0 / copy-pic=1 / max-ausize-factor=1.0 / no-dynamic-refine / no-single-sei
Language : English
Default : Yes
Forced : No

Audio
ID : 2
Format : E-AC-3
Format/Info : Enhanced AC-3
Commercial name : Dolby Digital Plus
Codec ID : A_EAC3
Duration : 43 min 2 s
Bit rate mode : Constant
Bit rate : 640 kb/s
Channel(s) : 6 channels
Channel layout : L R C LFE Ls Rs
Sampling rate : 48.0 kHz
Frame rate : 31.250 FPS (1536 SPF)
Compression mode : Lossy
Stream size : 197 MiB (17%)
Language : English
Service kind : Complete Main
Default : Yes
Forced : No

Text
ID : 3
Format : UTF-8
Codec ID : S_TEXT/UTF8
Codec ID/Info : UTF-8 Plain Text
Language : English
Default : Yes
Forced : No



We have no issue with individuals posting or re-uploading our torrents on a platform we aren't on. However, if this is something you'd like to do, please do so in a 'as-is' format. We ask that you do not create a new torrent, include all descriptions you see above including the SEV logo, tags, notes and screenshots. If you'd like to become a permanent poster on a website we don't post to, feel free to get in contact with a Sublime Encoded Video member.



We are recruiting/training new members for SEV & seedbox providers as well as people to help out with subtitles.
As you already know, we deliver quality, so you know the standard.
If you're interested, feel free to contact any of the team members.







Related Torrents
Browse Movies Torrents Related Torrents added recently in our database RSS  
Added  Size  Sort S  Sort L  Sort Health
Download Magnet English  Once_Upon_a_Time_in_London_2019_1080p_AMZN_x265_6CH_ReEnc-LU___ in Movies, by lumi265 11 minutes 1.7 GB 3744 82090
Download Magnet Serbian  Drzavni_Sluzbenik_S01E06_720p_HDTV_x264_-_ExYuSubs in TV, by Botanicar 11 minutes 749.0 MB 32403 57403
Download Magnet English  Eastenders_22nd_Apr__2019_1080p_(Deep61)_[WWRG] in TV, by Deep61 21 minutes 845.3 MB 84176 11404
Download Magnet English  Game_of_Thrones_S08E01_1080p_Webrip_HEVC_5_1_Omikron in TV, by OmiChannel 31 minutes 626.1 MB 97214 43774
Download Magnet German  The_Comedy_(2012)_[BluRay]_[720p]_[YTS]_[YIFY] in Movies, by YTSAGx 41 minutes 785.0 MB 55789 89358
Download Magnet English  The_Band_-_The_Last_Waltz_(1978)_1080p_BluRay_x264_DTS-HD_MA___ in Music, by Sartre 41 minutes 7.1 GB 99415 33236
Download Magnet English  House_of_Anubis_Season_1_720p_x264_Jassy in TV, by rahallivex1 46 minutes 6.1 GB 94277 28100
Download Magnet English  Bar_Rescue_S06E32_480p_x264-mSD_[eztv] in TV, by EZTVag 46 minutes 211.1 MB 80795 57091
Download Magnet English  Cops_S31E30_720p_WEB_x264-CookieMonster_[eztv] in TV, by EZTVag 46 minutes 439.4 MB 33330 44121
Download Magnet Spanish  Madre_2017_REPACK_720p_WEB-DL_h264_AC3-DEEP in Movies, by m1337e 46 minutes 328.2 MB 97443 44201




Recent Searches

Home - Browse Torrents - Upload Torrent - Recent Torrents - Login - Register - FAQ

Can't load ExtraTorrent.Network
2006-2018 ExtraTorrent.Network