ExtraTorrent

Login   |   Register   |   Home





Browse Torrents
| Search Cloud | | | | | FAQ  

» » Robin Hood 2018 1080p WEB-DL x265 HEVCBay

Loading...
Torrent Download                                Magnet Link                                      Watch Online


Download Robin Hood 2018 1080p WEB-DL x265 HEVCBay extratorrent


Download torrent:
Info hash 65C9F3BCBA33CA09DBAEB54A2B7E7E0460FC85E9
Torrent ID13998118
Comments: Sort Read Comments
Category: Movies
Health:
 Seeders: 1 |  Leechers: 2 |  Completed: n/a
Torrent language: English English
Total Size: 923.0 MB
Uploader: g3m696 Trusted Uploader Site Friend Superman Sun
Torrent added: 06-02-2019, 04:35:04
Views: 268



Extratorrent Download Torrent



hevcbay.com

Code:

General
Unique ID                                : 68890126299136425833826715418236543793 (0x33D3C1764A3F1C338BB9910D3657E331)
Complete name                            : Robin.Hood.2018.1080p.WEB-DL.x265.HEVCBay.com.mkv
Format                                   : Matroska
Format version                           : Version 4
File size                                : 923 MiB
Duration                                 : 1 h 56 min
Overall bit rate                         : 1 111 kb/s
Movie name                               : Robin.Hood.2018.1080p.WEB-DL.x265.HEVCBay.com.mkv
Encoded date                             : UTC 2019-02-05 15:23:42
Writing application                      : hevcbay
Writing library                          : hevcbay.com / Lavf58.22.100
Comment                                  : Encoded by hevcbay.com
ENCODED-BY                               : hevcbay.com

Video
ID                                       : 1
Format                                   : HEVC
Format/Info                              : High Efficiency Video Coding
Format profile                           : [email protected]@Main
Codec ID                                 : V_MPEGH/ISO/HEVC
Duration                                 : 1 h 56 min
Bit rate                                 : 1 056 kb/s
Width                                    : 1 920 pixels
Height                                   : 798 pixels
Display aspect ratio                     : 2.40:1
Frame rate mode                          : Constant
Frame rate                               : 23.976 (23976/1000) FPS
Color space                              : YUV
Chroma subsampling                       : 4:2:0
Bit depth                                : 8 bits
Bits/(Pixel*Frame)                       : 0.029
Stream size                              : 877 MiB (95%)
Writing library                          : Lavc58.40.100 libx265
Language                                 : English
Default                                  : Yes
Forced                                   : No
Color range                              : Limited

Audio
ID                                       : 2
Format                                   : AAC LC SBR PS
Format/Info                              : Advanced Audio Codec Low Complexity with Spectral Band Replication and Parametric Stereo
Commercial name                          : HE-AACv2
Format settings                          : NBC
Codec ID                                 : A_AAC-29
Duration                                 : 1 h 56 min
Bit rate                                 : 53.9 kb/s
Channel(s)                               : 2 channels
Channel layout                           : C
Sampling rate                            : 48.0 kHz
Frame rate                               : 23.438 FPS (2048 SPF)
Compression mode                         : Lossy
Delay relative to video                  : -148 ms
Stream size                              : 44.8 MiB (5%)
Writing library                          : Lavc58.40.100 libfdk_aac
Language                                 : English
Default                                  : Yes
Forced                                   : No












Related Torrents




Recent Searches

Home - Browse Torrents - Upload Torrent - Recent Torrents - Login - Register - FAQ

Can't load ExtraTorrent.Network
2006-2018 ExtraTorrent.Network