ExtraTorrent

Login   |   Register   |   Home





Browse Torrents
| Search Cloud | | | | | FAQ  

» » Hanuman Vs Mahiravana 2018 x264 720p HD Hindi GOPISAHI

Loading...
Torrent Download                                Magnet Link                                      Watch Online


Download Hanuman Vs Mahiravana 2018 x264 720p HD Hindi GOPISAHI extratorrent


Download torrent:
Info hash F62CB0DACD721A8A474152E85BE0343BC80484F6
Torrent ID13998125
Comments: Sort Read Comments
Category: Movies
Health:
 Seeders: 1 |  Leechers: n/a |  Completed: n/a
Torrent language: Hindi Hindi
Total Size: 497.6 MB
Uploader: PENDUDESI Trusted Uploader Site Friend Superman Sun
Torrent added: 06-02-2019, 04:45:05
Views: 133



Extratorrent Download Torrent



https://www.gopisahi.pw/

Format : Matroska
Format version : Version 4 / Version 2
File size : 498 MiB
Duration : 1 h 27 min
Overall bit rate : 797 kb/s
Movie name : Hanuman vs Mahiravana 2018 GOPISAHI

Video
Format : AVC
Format/Info : Advanced Video Codec
Codec ID : V_MPEG4/ISO/AVC
Duration : 1 h 27 min
Bit rate : 699 kb/s
Width : 1 280 pixels
Height : 544 pixels
Display aspect ratio : 2.35:1
Frame rate mode : Constant
Frame rate : 25.000 FPS
Color space : YUV
Chroma subsampling : 4:2:0
Bit depth : 8 bits
Scan type : Progressive
Bits/(Pixel*Frame) : 0.040
Stream size : 436 MiB (88%)
Title : GOPISAHI
Writing library : x264 core 157 r2935 545de2f

Audio
Format : AAC
Duration : 1 h 27 min
Bit rate : 96.0 kb/s
Channel(s) : 2 channels
Channel positions : Front: L R
Sampling rate : 48.0 kHz
Frame rate : 46.875 FPS (1024 SPF)
Compression mode : Lossy
Delay relative to video : -54 ms
Stream size : 59.9 MiB (12%)
Title : GOPISAHI
Language : Hindi








Related Torrents




Recent Searches

Home - Browse Torrents - Upload Torrent - Recent Torrents - Login - Register - FAQ

Can't load ExtraTorrent.Network
2006-2018 ExtraTorrent.Network