ExtraTorrent

Login   |   Register   |   Home





Browse Torrents
| Search Cloud | | | | | FAQ  

» » House Of The Dead 2 2005 x264 720p Esub HD Dual Audio English Hindi GOPISAHI

Loading...
Torrent Download                                Magnet Link                                      Watch Online


Download House Of The Dead 2 2005 x264 720p Esub HD Dual Audio English Hindi GOPISAHI extratorrent


Download torrent:
Info hash 698E9862FD68B64393DFD731682564017417812F
Torrent ID13998157
Comments: Sort Read Comments
Category: Movies
Health:
 Seeders: 2 |  Leechers: 3 |  Completed: n/a
Torrent language: English English
Total Size: 611.8 MB
Uploader: PENDUDESI Trusted Uploader Site Friend Superman Sun
Torrent added: 06-02-2019, 05:50:05
Views: 97



Extratorrent Download Torrent KickassTorrents Site Status, Kickass Proxy List
https://thekickasstorrents.com
OUR IPTV CHANNELS LIST - iptvserver.top
www.iptvserver.top/iptv-channels-list.htm



https://www.gopisahi.pw/

Format : Matroska
Format version : Version 4 / Version 2
File size : 612 MiB
Duration : 1 h 35 min
Overall bit rate : 895 kb/s
Movie name : House Of The Dead 2 2005 GOPISAHI

Video
Format : AVC
Format/Info : Advanced Video Codec
Codec ID : V_MPEG4/ISO/AVC
Duration : 1 h 35 min
Bit rate : 699 kb/s
Width : 1 280 pixels
Height : 720 pixels
Display aspect ratio : 16:9
Frame rate mode : Constant
Frame rate : 23.810 FPS
Color space : YUV
Chroma subsampling : 4:2:0
Bit depth : 8 bits
Scan type : Progressive
Bits/(Pixel*Frame) : 0.032
Stream size : 478 MiB (78%)
Title : GOPISAHI
Writing library : x264 core 157 r2935 545de2f

Audio #1
Format : AAC
Duration : 1 h 35 min
Bit rate : 96.0 kb/s
Channel(s) : 2 channels
Channel positions : Front: L R
Sampling rate : 48.0 kHz
Frame rate : 46.875 FPS (1024 SPF)
Compression mode : Lossy
Delay relative to video : -21 ms
Stream size : 66.0 MiB (11%)
Title : GOPISAHI
Language : Hindi

Audio #2
Format : AAC
Duration : 1 h 35 min
Bit rate : 96.0 kb/s
Channel(s) : 2 channels
Channel positions : Front: L R
Sampling rate : 48.0 kHz
Frame rate : 46.875 FPS (1024 SPF)
Compression mode : Lossy
Stream size : 66.0 MiB (11%)
Title : GOPISAHI
Language : English

Text
Language : English

Menu
00:00:00.000 : en:Chapter 1
00:08:24.084 : en:Chapter 2
00:18:20.106 : en:Chapter 3
00:29:14.130 : en:Chapter 4
00:38:22.104 : en:Chapter 5
00:47:59.100 : en:Chapter 6
00:58:41.112 : en:Chapter 7
01:09:06.114 : en:Chapter 8
01:19:12.048 : en:Chapter 9
01:31:30.114 : en:Chapter 10








Related Torrents




Recent Searches

Home - Browse Torrents - Upload Torrent - Recent Torrents - Login - Register - FAQ

Can't load ExtraTorrent.Network
2006-2018 ExtraTorrent.Network