Website Shifted Kindly Click on Any Button to Enter This Site..





Loading...

                                                                                                                                 .







































































































































































ExtraTorrent

Login   |   Register   |   Home
Browse Torrents
| Search Cloud | | | | | FAQ  
» » Bohemian Rhapsody (2018) 720p BluRay x264 Dual Audio [Hindi - English] DD5 1 - MSUBS ~ Ranvijay

Download Bohemian Rhapsody (2018) 720p BluRay x264 Dual Audio [Hindi - English] DD5 1 - MSUBS ~ Ranvijay extratorrent


Download torrent: Download Magnet Bohemian Rhapsody (2018) 720p BluRay x264 Dual Audio [Hindi - English] DD5 1 - MSUBS ~ Ranvijay
Info hash 4C95ED82C5B1AC2228C6C69F77EEC649F688D807
Torrent ID13998173
Comments: Sort Read Comments
Category: Movies
Health:
 Seeders: 9 |  Leechers: 10 |  Completed: 42
Torrent language: Hindi Hindi
Total Size: 1.5 GB
Uploader: TheFighter Trusted Uploader Site Friend Superman Sun
Torrent added: 06-02-2019, 06:30:06
Views: 82



Extratorrent Download Torrent Bohemian Rhapsody (2018) 720p BluRay x264 …
https://x1337x.se/torrent/3573404/Bohemian-Rhapsody-2018-720p...
Bohemian Rhapsody (2018) 1080p BluRay x264 …
z60888.com/torrent/3574650/Bohemian-Rhapsody-2018-1080p-BluRay...
Bohemian Rhapsody (2018) 720p 480p BluRay …
https://torrenta2z.com/bohemian-rhapsody-2018-720p-480p-bluray...
Bohemian Rhapsody (2018) 720p BluRay x264 …
hqbluray.com › Hindi Dubbed Movies
Bohemian Rhapsody (2018) 720p BluRay x264 …
warezhero.com › English Movies Dubbed in Hindi
Bohemian Rhapsody (2018) 720p BluRay x264 …
mechopirate.com › … › Movies › Non-English Audio Movies
Bohemian Rhapsody 2018 720p BluRay x264 Dual …
ugmovies.org › Movies
Bohemian Rhapsody (2018) hindi english dual …
www.free-download-torrent.com/bohemian-rhapsody-2018-hindi-english...
Bohemian Rhapsody 2018 720p BluRay Hindi …
rgmoviez.org › Movies
Download dual audio hindi Torrents | 1337x
https://1337x.unblocked.llc/sort-search/dual audio hindi/time/desc/1
http://www.Amazon.de/Bluray Bohemian Rhapsody
https://www.idealo.de/preisvergleich/shopping
https://www.conrad.de/Blu Ray









Bohemian Rhapsody (2018) 720p BluRay x264 Dual Audio [Hindi - English] DD5.1 - MSUBS ~ Ranvijay


Hindi Audio Credit :- NoNam3 (The One which cannot be named)

Buy RDP Online





Format : Matroska
Format version : Version 4 / Version 2
File size : 1.47 GiB
Duration : 2 h 14 min
Overall bit rate : 1 564 kb/s
Movie name : Bohemian Rhapsody (2018) 720p BluRay x264 Dual Audio [Hindi - English] DD5.1 - MSUBS ~ Ranvijay

Video
ID : 1
Format : AVC
Format/Info : Advanced Video Codec
Duration : 2 h 14 min
Bit rate : 1 011 kb/s
Width : 1 280 pixels
Height : 536 pixels
Display aspect ratio : 2.40:1
Frame rate mode : Constant
Frame rate : 23.976 (24000/1001) FPS
Color space : YUV
Chroma subsampling : 4:2:0
Bit depth : 8 bits
Scan type : Progressive
Bits/(Pixel*Frame) : 0.061
Stream size : 973 MiB (65%)
Title : ~Ranvijay~

Audio #1
ID : 2
Format : AC-3
Format/Info : Audio Coding 3
Codec ID : A_AC3
Duration : 2 h 14 min
Bit rate mode : Constant
Bit rate : 448 kb/s
Channel(s) : 6 channels
Channel positions : Front: L C R, Side: L R, LFE
Sampling rate : 48.0 kHz
Frame rate : 31.250 FPS (1536 SPF)
Bit depth : 16 bits
Compression mode : Lossy
Stream size : 431 MiB (29%)
Title : ~Ranvijay~
Language : Hindi
Service kind : Complete Main
Default : Yes
Forced : Yes

Audio #2
ID : 3
Format : AAC
Format/Info : Advanced Audio Codec
Format profile : LC
Codec ID : A_AAC-2
Duration : 2 h 14 min
Bit rate : 79.1 kb/s
Channel(s) : 2 channels
Channel positions : Front: L R
Sampling rate : 48.0 kHz
Frame rate : 46.875 FPS (1024 SPF)
Compression mode : Lossy
Delay relative to video : 9 ms
Stream size : 76.2 MiB (5%)
Title : ~Ranvijay~
Language : English
Default : No
Forced : No

Text #1
ID : 4
Format : PGS
Muxing mode : zlib
Codec ID : S_HDMV/PGS
Codec ID/Info : Picture based subtitle format used on BDs/HD-DVDs
Duration : 2 h 11 min
Bit rate : 44.0 kb/s
Count of elements : 4536
Stream size : 41.2 MiB (3%)
Title : ~Ranvijay~
Language : English
Default : Yes
Forced : Yes

Text #2
ID : 5
Format : PGS
Muxing mode : zlib
Codec ID : S_HDMV/PGS
Codec ID/Info : Picture based subtitle format used on BDs/HD-DVDs
Duration : 2 h 13 min
Bit rate : 28.5 kb/s
Count of elements : 3659
Stream size : 27.2 MiB (2%)
Title : ~Ranvijay~
Language : Hindi
Default : No
Forced : No

Menu
00:00:00.000 : en:00:00:00.000
00:03:48.728 : en:00:03:48.728
00:07:45.465 : en:00:07:45.465
00:11:16.593 : en:00:11:16.593
00:17:41.811 : en:00:17:41.811
00:21:03.179 : en:00:21:03.179
00:27:24.184 : en:00:27:24.184
00:33:34.846 : en:00:33:34.846
00:37:22.282 : en:00:37:22.282
00:45:24.013 : en:00:45:24.013
00:52:19.595 : en:00:52:19.595
00:56:57.205 : en:00:56:57.205
01:03:11.413 : en:01:03:11.413
01:10:44.991 : en:01:10:44.991
01:15:25.730 : en:01:15:25.730
01:21:45.901 : en:01:21:45.901
01:26:59.172 : en:01:26:59.172
01:32:18.199 : en:01:32:18.199
01:36:43.923 : en:01:36:43.923
01:43:25.574 : en:01:43:25.574
01:50:23.283 : en:01:50:23.283
01:54:22.898 : en:01:54:22.898
02:00:41.109 : en:02:00:41.109
02:07:53.332 : en:02:07:53.332











Don't walk as you are king, walk as you don't care who the king is....!!





   


Related Torrents




Recent Searches

Home - Browse Torrents - Upload Torrent - Recent Torrents - Login - Register - FAQ

Can't load ExtraTorrent.Network
2006-2018 ExtraTorrent.Network