Website Shifted Kindly Click on Any Button to Enter This Site..





Loading...

                                                                                                                                 .







































































































































































ExtraTorrent

Login   |   Register   |   Home
Browse Torrents
| Search Cloud | | | | | FAQ  
» » Game Of Thrones S03 x264 720p Esub Dual Audio English Hindi GOPISAHI

Download Game Of Thrones S03 x264 720p Esub Dual Audio English Hindi GOPISAHI extratorrent


Download torrent: Download Magnet Game Of Thrones S03 x264 720p Esub Dual Audio English Hindi GOPISAHI
Info hash AD38C4BCE257963E6669C7C92A1A6ACC12F8109E
Torrent ID13998214
Comments: Sort Read Comments
Category: TV
Health:
 Seeders: 7 |  Leechers: 6 |  Completed: 97
Torrent language: English English
Total Size: 3.1 GB
Uploader: PENDUDESI Trusted Uploader Site Friend Superman Sun
Torrent added: 06-02-2019, 07:35:04
Views: 121



Extratorrent Download Torrent Channel List - landiptv
https://landiptv.com/channel-list



https://www.gopisahi.pw/

Format : Matroska
Format version : Version 4 / Version 2
File size : 310 MiB
Duration : 54 min 31 s
Overall bit rate : 795 kb/s

Video
Format : AVC
Format/Info : Advanced Video Codec
Codec ID : V_MPEG4/ISO/AVC
Duration : 54 min 31 s
Bit rate : 599 kb/s
Width : 1 280 pixels
Height : 720 pixels
Display aspect ratio : 16:9
Frame rate mode : Constant
Frame rate : 23.976 (24000/1001) FPS
Color space : YUV
Chroma subsampling : 4:2:0
Bit depth : 8 bits
Scan type : Progressive
Bits/(Pixel*Frame) : 0.027
Stream size : 234 MiB (75%)
Title : GOPISAHI
Writing library : x264 core 157 r2935 545de2f

Audio #1
Format : AAC
Duration : 54 min 31 s
Bit rate : 96.0 kb/s
Channel(s) : 2 channels
Channel positions : Front: L R
Sampling rate : 48.0 kHz
Frame rate : 46.875 FPS (1024 SPF)
Compression mode : Lossy
Delay relative to video : -21 ms
Stream size : 37.7 MiB (12%)
Title : GOPISAHI
Language : Hindi

Audio #2
Format : AAC
Duration : 54 min 31 s
Bit rate : 96.0 kb/s
Channel(s) : 2 channels
Channel positions : Front: L R
Sampling rate : 48.0 kHz
Frame rate : 46.875 FPS (1024 SPF)
Compression mode : Lossy
Delay relative to video : -12 ms
Stream size : 37.7 MiB (12%)
Title : GOPISAHI
Language : English

Text
Language : English






   


Related Torrents




Recent Searches

Home - Browse Torrents - Upload Torrent - Recent Torrents - Login - Register - FAQ

Can't load ExtraTorrent.Network
2006-2018 ExtraTorrent.Network