ExtraTorrent

Login   |   Register   |   Home





Browse Torrents
| Search Cloud | | | | | FAQ  

» » Bohemian Rhapsody 2018 1080p 10bit BluRay Hindi DD5 1 English DD7 1 x265 HEVC MCUMovies

Loading...
Torrent Download                                Magnet Link                                      Watch Online


Download Bohemian Rhapsody 2018 1080p 10bit BluRay Hindi DD5 1 English DD7 1 x265 HEVC MCUMovies extratorrent


Download torrent:
Info hash 6171EC67D0406311B3A09F0B39F37543FB5F736D
Torrent ID13998229
Comments: Sort Read Comments
Category: Movies
Health:
 Seeders: 3 |  Leechers: 5 |  Completed: 1
Torrent language: Hindi Hindi
Total Size: 2.5 GB
Uploader: TeamMCU Trusted Uploader Site Friend Superman Sun
Torrent added: 06-02-2019, 08:05:05
Views: 96



Extratorrent Download Torrent



Bohemian.Rhapsody.2018.1080p.10bit.BluRay.Hindi.DD5.1.English.DD7.1.x265.HEVC.MCUMoviesHome.com


Visit our site: https://mcumovieshome.com


*** If The Torrent is Dead, Visit Our Site for Direct Links. ***



Code:

General
Format                                   : Matroska
Format version                           : Version 4
File size                                : 2.54 GiB
Duration                                 : 2 h 14 min
Overall bit rate                         : 2 699 kb/s
Movie name                               : MCUMoviesHome.com | Bohemian.Rhapsody.2018.1080p.10bit.BluRay.Hindi.DD5.1.English.DD7.1.x265.HEVC
Encoded date                             : UTC 2019-02-06 05:48:43
Writing application                      : mkvmerge v27.0.0 ('Metropolis') 64-bit
Writing library                          : libebml v1.3.6 + libmatroska v1.4.9

Video
ID                                       : 1
Format                                   : HEVC
Format/Info                              : High Efficiency Video Coding
Format profile                           : Main [email protected]@Main
Codec ID                                 : V_MPEGH/ISO/HEVC
Duration                                 : 2 h 14 min
Bit rate                                 : 1 967 kb/s
Width                                    : 1 920 pixels
Height                                   : 808 pixels
Display aspect ratio                     : 2.40:1
Frame rate mode                          : Constant
Frame rate                               : 23.976 (24000/1001) FPS
Color space                              : YUV
Chroma subsampling                       : 4:2:0
Bit depth                                : 10 bits
Bits/(Pixel*Frame)                       : 0.053
Stream size                              : 1.85 GiB (73%)
Title                                    : MCUMoviesHome.com
Default                                  : Yes
Forced                                   : No

Audio #1
ID                                       : 2
Format                                   : AAC LC SBR
Format/Info                              : Advanced Audio Codec Low Complexity with Spectral Band Replication
Commercial name                          : HE-AAC
Format settings                          : Explicit
Codec ID                                 : A_AAC-2
Duration                                 : 2 h 14 min
Bit rate                                 : 258 kb/s
Channel(s)                               : 7 channels
Channel(s)_Original                      : 8 channels
Channel layout                           : C L R Ls Rs Lb Rb LFE
Sampling rate                            : 48.0 kHz
Frame rate                               : 23.438 FPS (2048 SPF)
Compression mode                         : Lossy
Delay relative to video                  : 31 ms
Stream size                              : 248 MiB (10%)
Title                                    : MCUMoviesHome.com
Language                                 : English
Default                                  : No
Forced                                   : No

Audio #2
ID                                       : 5
Format                                   : AC-3
Format/Info                              : Audio Coding 3
Commercial name                          : Dolby Digital
Codec ID                                 : A_AC3
Duration                                 : 2 h 14 min
Bit rate mode                            : Constant
Bit rate                                 : 448 kb/s
Channel(s)                               : 6 channels
Channel layout                           : L R C LFE Ls Rs
Sampling rate                            : 48.0 kHz
Frame rate                               : 31.250 FPS (1536 SPF)
Bit depth                                : 16 bits
Compression mode                         : Lossy
Stream size                              : 431 MiB (17%)
Title                                    : MCUMoviesHome.com
Language                                 : Hindi
Service kind                             : Complete Main
Default                                  : Yes
Forced                                   : Yes

Text #1
ID                                       : 3
Format                                   : PGS
Muxing mode                              : zlib
Codec ID                                 : S_HDMV/PGS
Codec ID/Info                            : Picture based subtitle format used on BDs/HD-DVDs
Duration                                 : 2 h 11 min
Bit rate                                 : 44.0 kb/s
Count of elements                        : 4536
Stream size                              : 41.2 MiB (2%)
Title                                    : MCUMoviesHome.com
Language                                 : English
Default                                  : Yes
Forced                                   : No

Text #2
ID                                       : 4
Format                                   : PGS
Muxing mode                              : zlib
Codec ID                                 : S_HDMV/PGS
Codec ID/Info                            : Picture based subtitle format used on BDs/HD-DVDs
Duration                                 : 2 h 13 min
Bit rate                                 : 28.5 kb/s
Count of elements                        : 3659
Stream size                              : 27.2 MiB (1%)
Title                                    : MCUMoviesHome.com
Language                                 : Hindi
Default                                  : No
Forced                                   : No








Code:

Sources:
Video: Bohemian.Rhapsody.2018.1080p.10bit.BluRay.English.8CH.x265.HEVC.PSA
Audio: NoNAME









Related Torrents




Recent Searches

Home - Browse Torrents - Upload Torrent - Recent Torrents - Login - Register - FAQ

Can't load ExtraTorrent.Network
2006-2018 ExtraTorrent.Network