ExtraTorrent

Login   |   Register   |   Home





Browse Torrents
| Search Cloud | | | | | FAQ  

» » Bohemian Rhapsody 2018 720p 10bit BluRay Hindi DD5 1 English DD5 1 x265 HEVC MCUMovies

Loading...
Torrent Download                                Magnet Link                                      Watch Online


Download Bohemian Rhapsody 2018 720p 10bit BluRay Hindi DD5 1 English DD5 1 x265 HEVC MCUMovies extratorrent


Download torrent:
Info hash 7EDD165C55E3995854F3C848F8499CB7A5666E27
Torrent ID13998235
Comments: Sort Read Comments
Category: Movies
Health:
 Seeders: 1 |  Leechers: 3 |  Completed: 697
Torrent language: Hindi Hindi
Total Size: 1.5 GB
Uploader: TeamMCU Trusted Uploader Site Friend Superman Sun
Torrent added: 06-02-2019, 08:10:04
Views: 111



Extratorrent Download Torrent



Bohemian.Rhapsody.2018.720p.10bit.BluRay.Hindi.DD5.1.English.DD5.1.x265.HEVC.MCUMoviesHome.com


Visit our site: https://mcumovieshome.com


*** If The Torrent is Dead, Visit Our Site for Direct Links. ***



Code:

General
Unique ID                                : 299489657053829741595782254850322722744 (0xE14F9C1F7C2B123FC480300664DBEFB8)
Format                                   : Matroska
Format version                           : Version 4
File size                                : 1.53 GiB
Duration                                 : 2 h 14 min
Overall bit rate                         : 1 631 kb/s
Movie name                               : MCUMoviesHome.com | Bohemian.Rhapsody.2018.720p.10bit.BluRay.Hindi.DD5.1..English.DD5.1.x265.HEVC
Encoded date                             : UTC 2019-02-06 05:44:08
Writing application                      : mkvmerge v27.0.0 ('Metropolis') 64-bit
Writing library                          : libebml v1.3.6 + libmatroska v1.4.9

Video
ID                                       : 1
Format                                   : HEVC
Format/Info                              : High Efficiency Video Coding
Format profile                           : Main [email protected]@Main
Codec ID                                 : V_MPEGH/ISO/HEVC
Duration                                 : 2 h 14 min
Bit rate                                 : 953 kb/s
Width                                    : 1 280 pixels
Height                                   : 536 pixels
Display aspect ratio                     : 2.40:1
Frame rate mode                          : Constant
Frame rate                               : 23.976 (24000/1001) FPS
Color space                              : YUV
Chroma subsampling                       : 4:2:0
Bit depth                                : 10 bits
Bits/(Pixel*Frame)                       : 0.058
Stream size                              : 918 MiB (58%)
Title                                    : MCUMoviesHome.com
Default                                  : Yes
Forced                                   : No

Audio #1
ID                                       : 2
Format                                   : AAC LC SBR
Format/Info                              : Advanced Audio Codec Low Complexity with Spectral Band Replication
Commercial name                          : HE-AAC
Format settings                          : Explicit
Codec ID                                 : A_AAC-2
Duration                                 : 2 h 14 min
Bit rate                                 : 204 kb/s
Channel(s)                               : 6 channels
Channel layout                           : C L R Ls Rs LFE
Sampling rate                            : 48.0 kHz
Frame rate                               : 23.438 FPS (2048 SPF)
Compression mode                         : Lossy
Delay relative to video                  : 31 ms
Stream size                              : 196 MiB (13%)
Title                                    : MCUMoviesHome.com
Language                                 : English
Default                                  : No
Forced                                   : No

Audio #2
ID                                       : 3
Format                                   : AC-3
Format/Info                              : Audio Coding 3
Commercial name                          : Dolby Digital
Codec ID                                 : A_AC3
Duration                                 : 2 h 14 min
Bit rate mode                            : Constant
Bit rate                                 : 448 kb/s
Channel(s)                               : 6 channels
Channel layout                           : L R C LFE Ls Rs
Sampling rate                            : 48.0 kHz
Frame rate                               : 31.250 FPS (1536 SPF)
Bit depth                                : 16 bits
Compression mode                         : Lossy
Stream size                              : 431 MiB (27%)
Title                                    : MCUMoviesHome.com
Language                                 : Hindi
Service kind                             : Complete Main
Default                                  : Yes
Forced                                   : Yes

Text #1
ID                                       : 4
Format                                   : PGS
Muxing mode                              : zlib
Codec ID                                 : S_HDMV/PGS
Codec ID/Info                            : Picture based subtitle format used on BDs/HD-DVDs
Duration                                 : 2 h 13 min
Bit rate                                 : 28.5 kb/s
Count of elements                        : 3659
Stream size                              : 27.2 MiB (2%)
Title                                    : MCUMoviesHome.com
Language                                 : Hindi
Default                                  : Yes
Forced                                   : No

Text #2
ID                                       : 5
Format                                   : PGS
Muxing mode                              : zlib
Codec ID                                 : S_HDMV/PGS
Codec ID/Info                            : Picture based subtitle format used on BDs/HD-DVDs
Duration                                 : 2 h 11 min
Bit rate                                 : 44.0 kb/s
Count of elements                        : 4536
Stream size                              : 41.2 MiB (3%)
Title                                    : MCUMoviesHome.com
Language                                 : English
Default                                  : No
Forced                                   : No








Code:

Sources:
Video: Bohemian.Rhapsody.2018.720p.10bit.BluRay.English.6CH.x265.HEVC.PSA
Audio: NoNAME









Related Torrents




Recent Searches

Home - Browse Torrents - Upload Torrent - Recent Torrents - Login - Register - FAQ

Can't load ExtraTorrent.Network
2006-2018 ExtraTorrent.Network