Website Shifted Kindly Click on Any Button to Enter This Site..





Loading...

                                                                                                                                 .







































































































































































ExtraTorrent

Login   |   Register   |   Home
Browse Torrents
| Search Cloud | | | | | FAQ  
» » Kong - Skull Island (2017) 1080p 10bit Bluray x265 HEVC [Org DD 5 1 Hindi + DD 5 1 English] MSubs ~ TombDoc

Download Kong - Skull Island (2017) 1080p 10bit Bluray x265 HEVC [Org DD 5 1 Hindi + DD 5 1 English] MSubs ~ TombDoc extratorrent


Download torrent: Download Magnet Kong - Skull Island (2017) 1080p 10bit Bluray x265 HEVC [Org DD 5 1 Hindi + DD 5 1 English] MSubs ~ TombDoc
Info hash 7884A25A45468268F9C31B164031FEA0329B5563
Torrent ID13998291
Comments: Sort Read Comments
Category: Movies
Health:
 Seeders: 3 |  Leechers: 5 |  Completed: 38
Torrent language: Hindi Hindi
Total Size: 3.9 GB
Uploader: McuDudeS Trusted Uploader Site Friend Superman Sun
Torrent added: 06-02-2019, 09:55:05
Views: 88



Extratorrent Download Torrent





All hail the King...





Kong: Skull Island (2017) 1080p 10bit Bluray x265 HEVC [Org DD 5.1 Hindi + DD 5.1 English] MSubs ~ TombDoc


Org Untouched DD+ 5.1 640Kbps Hindi Audio By Punisher {Thanks}


Code:

Format : Matroska
Format version : Version 4
File size : 3.88 GiB
Duration : 1 h 58 min
Overall bit rate : 4 688 kb/s :
Writing frontend : TombDoc

Video
ID : 1
Format : HEVC
Format/Info : High Efficiency Video Coding
Format profile : Main [email protected]@Main
Codec ID : V_MPEGH/ISO/HEVC
Duration : 1 h 58 min
Bit rate : 3 650 kb/s
Width : 1 920 pixels
Height : 800 pixels
Display aspect ratio : 2.40:1
Frame rate mode : Constant
Frame rate : 23.976 (24000/1001) FPS
Color space : YUV
Chroma subsampling : 4:2:0
Bit depth : 10 bits
Bits/(Pixel*Frame) : 0.099
Stream size : 3.02 GiB (78%)
Writing library : x265 3.0_RC+11-9a975542fe39:[Windows][MSVC 1920][64 bit] 10bit
Encoding settings : cpuid=1049583 / frame-threads=5 / numa-pools=16,16 / wpp / no-pmode / no-pme / no-psnr / no-ssim / log-level=2 / input-csp=1 / input-res=1920x800 / interlace=0 / total-frames=170312 / level-idc=0 / high-tier=1 / uhd-bd=0 / ref=4 / no-allow-non-conformance / no-repeat-headers / annexb / no-aud / no-hrd / info / hash=0 / no-temporal-layers / open-gop / min-keyint=23 / keyint=250 / gop-lookahead=0 / bframes=8 / b-adapt=2 / b-pyramid / bframe-bias=0 / rc-lookahead=25 / lookahead-slices=4 / scenecut=40 / radl=0 / no-splice / no-intra-refresh / ctu=64 / min-cu-size=8 / rect / no-amp / max-tu-size=32 / tu-inter-depth=1 / tu-intra-depth=1 / limit-tu=0 / rdoq-level=2 / dynamic-rd=0.00 / ssim-rd / signhide / no-tskip / nr-intra=0 / nr-inter=0 / no-constrained-intra / strong-intra-smoothing / max-merge=3 / limit-refs=3 / limit-modes / me=3 / subme=3 / merange=57 / temporal-mvp / weightp / no-weightb / no-analyze-src-pics / deblock=0:0 / sao / no-sao-non-deblock / rd=4 / no-early-skip / rskip / no-fast-intra / no-tskip-fast / no-cu-lossless / no-b-intra / no-splitrd-skip / rdpenalty=0 / psy-rd=0.00 / psy-rdoq=1.00 / no-rd-refine / no-lossless / cbqpoffs=0 / crqpoffs=0 / rc=abr / bitrate=3650 / qcomp=0.60 / qpstep=4 / stats-write=0 / stats-read=2 / cplxblur=20.0 / qblur=0.5 / ipratio=1.40 / pbratio=1.30 / aq-mode=3 / aq-strength=1.00 / cutree / zone-count=0 / no-strict-cbr / qg-size=32 / no-rc-grain / qpmax=69 / qpmin=0 / no-const-vbv / sar=0 / overscan=0 / videoformat=5 / range=0 / colorprim=2 / transfer=2 / colormatrix=2 / chromaloc=0 / display-window=0 / max-cll=0,0 / min-luma=0 / max-luma=1023 / log2-max-poc-lsb=8 / vui-timing-info / vui-hrd-info / slices=1 / no-opt-qp-pps / no-opt-ref-list-length-pps / no-multi-pass-opt-rps / scenecut-bias=0.05 / no-opt-cu-delta-qp / aq-motion / no-hdr / no-hdr-opt / no-dhdr10-opt / no-idr-recovery-sei / analysis-reuse-level=5 / scale-factor=0 / refine-intra=0 / refine-inter=0 / refine-mv=0 / refine-ctu-distortion=0 / no-limit-sao / ctu-info=0 / no-lowpass-dct / refine-analysis-type=0 / copy-pic=1 / max-ausize-factor=1.0 / no-dynamic-refine / no-single-sei / hevc-aq / qp-adaptation-range=1.00
Default : Yes
Forced : No

Audio #1
ID : 2
Format : E-AC-3
Format/Info : Enhanced AC-3
Commercial name : Dolby Digital Plus
Codec ID : A_EAC3
Duration : 1 h 58 min
Bit rate mode : Constant
Bit rate : 640 kb/s
Channel(s) : 6 channels
Channel layout : L R C LFE Ls Rs
Sampling rate : 48.0 kHz
Frame rate : 31.250 FPS (1536 SPF)
Compression mode : Lossy
Delay relative to video : 997 ms
Stream size : 542 MiB (14%)
Title : Org Amz DD+ 5.1 640Kbps ~ TombDoc
Language : Hindi
Service kind : Complete Main
Default : Yes
Forced : Yes

Audio #2
ID : 3
Format : AC-3
Format/Info : Audio Coding 3
Commercial name : Dolby Digital
Codec ID : A_AC3
Duration : 1 h 58 min
Bit rate mode : Constant
Bit rate : 384 kb/s
Channel(s) : 6 channels
Channel layout : L R C LFE Ls Rs
Sampling rate : 48.0 kHz
Frame rate : 31.250 FPS (1536 SPF)
Bit depth : 16 bits
Compression mode : Lossy
Stream size : 325 MiB (8%)
Title : DD 5.1 English
Language : English
Service kind : Complete Main
Default : No
Forced : No

Text #1
ID : 4
Format : PGS
Muxing mode : zlib
Codec ID : S_HDMV/PGS
Codec ID/Info : Picture based subtitle format used on BDs/HD-DVDs
Duration : 1 h 54 min
Bit rate : 588 b/s
Count of elements : 58
Stream size : 496 KiB (0%)
Title : Hindi BD-PGS {Forced}
Language : Hindi
Default : Yes
Forced : Yes

Text #2
ID : 5
Format : PGS
Muxing mode : zlib
Codec ID : S_HDMV/PGS
Codec ID/Info : Picture based subtitle format used on BDs/HD-DVDs
Duration : 1 h 58 min
Bit rate : 33.3 kb/s
Count of elements : 3060
Stream size : 28.2 MiB (1%)
Title : Eng BD-PGS
Language : English
Default : No
Forced : No

Text #3
ID : 6
Format : PGS
Muxing mode : zlib
Codec ID : S_HDMV/PGS
Codec ID/Info : Picture based subtitle format used on BDs/HD-DVDs
Duration : 1 h 54 min
Bit rate : 519 b/s
Count of elements : 58
Stream size : 437 KiB (0%)
Title : Tamil BD-PGS {Forced}
Language : Tamil
Default : No
Forced : No

Text #4
ID : 7
Format : PGS
Muxing mode : zlib
Codec ID : S_HDMV/PGS
Codec ID/Info : Picture based subtitle format used on BDs/HD-DVDs
Duration : 1 h 54 min
Bit rate : 381 b/s
Count of elements : 58
Stream size : 321 KiB (0%)
Title : Telugu BD-PGS {Forced}
Language : Telugu
Default : No
Forced : No

Menu
00:00:00.000 : en:Chapter 01
00:08:54.743 : en:Chapter 02
00:19:51.774 : en:Chapter 03
00:30:01.133 : en:Chapter 04
00:40:00.106 : en:Chapter 05
00:50:13.260 : en:Chapter 06
01:00:49.729 : en:Chapter 07
01:10:29.600 : en:Chapter 08
01:18:05.890 : en:Chapter 09
01:30:12.657 : en:Chapter 10
01:39:09.026 : en:Chapter 11
01:47:05.836 : en:Chapter 12



Code:

Source: Kong: Skull Island 2017 1080p EUR BluRay AVC Atmos TrueHD 7.1-HDCLUB
Note: If anyone wants to Download Multi BD Audios, Here's the link.

Kong - Skull Island (2017) Org Untouched Bluray DD 5.1 448Kbps Hindi Audio By ~ TombDoc


Kong - Skull Island (2017) Org Untouched Bluray DD 5.1 448Kbps Tamil Audio By ~ TombDoc


Kong - Skull Island (2017) Org Untouched Bluray DD 5.1 448Kbps Telugu Audio By ~ TombDoc







   


Related Torrents
Browse Movies Torrents Related Torrents added recently in our database RSS  
Added  Size  Sort S  Sort L  Sort Health
Download Magnet Hindi  Dance_Bar_2019_Hindi_720p_WEB_DL_Ep1-6_Ullu_Originals_AVC_DD___ in TV, by uploader6969 1 minute 1.5 GB 2309 94431
Download Magnet English  Stephen_Colbert_2019_02_21_Annette_Bening_480p_x264-mSD_[ezt___ in TV, by EZTVag 1 minute 170.8 MB 78642 13498
Download Magnet English  Will_And_Grace_S10E12_WEB_x264-TBS[TGx] in TV, by mazemaze16 1 minute 306.6 MB 44698 13284
Download Magnet English  Stephen_Colbert_2019_02_21_Annette_Bening_WEB_x264-TBS[TGx] in TV, by mazemaze16 1 minute 651.7 MB 74549 39700
Download Magnet English  The_Titan_Games_S01E08_480p_x264-mSD_[eztv] in TV, by EZTVag 1 minute 298.8 MB 44316 32538
Download Magnet Hindi  The_Final_Call_2019_Season_1_Complete_HDRip_x264_720p_1GB in Movies, by kommu 6 minutes 993.9 MB 50804 8482
Download Magnet English  Offset_-_FATHER_OF_4_(2019)_FLAC in Music, by freemusicdl 6 minutes 335.8 MB 62230 52571
Download Magnet English  Sudden_Strike_4_The_Pacific_War-HOODLUM in Games, by IGGGAMESCOM 6 minutes 8.1 GB 27905 28329
Download Magnet English  The_Prometheus_Secret_Noohra-SKIDROW in Games, by IGGGAMESCOM 6 minutes 2.0 GB 5758 20128
Download Magnet English  The_Titan_Games_S01E08_WEB_x264-TBS_[eztv] in TV, by EZTVag 11 minutes 602.6 MB 9710 6078




Recent Searches

Home - Browse Torrents - Upload Torrent - Recent Torrents - Login - Register - FAQ

Can't load ExtraTorrent.Network
2006-2018 ExtraTorrent.Network