Website Shifted Kindly Click on Any Button to Enter This Site..





Loading...

                                                                                                                                 .







































































































































































ExtraTorrent

Login   |   Register   |   Home
Browse Torrents
| Search Cloud | | | | | FAQ  
» » Agneepath (2012) Hindi 720p BRRip x264 AAC-Sun George (Requested)

Download Agneepath (2012) Hindi 720p BRRip x264 AAC-Sun George (Requested) extratorrent


Download torrent: Download Magnet Agneepath (2012) Hindi 720p BRRip x264 AAC-Sun George (Requested)
Info hash 147E1C62232FC6BE909855B1C3EFEF804C0CAD09
Torrent ID13998333
Comments: Sort Read Comments
Category: Movies
Health:
 Seeders: 5 |  Leechers: 6 |  Completed: 69
Torrent language: Hindi Hindi
Total Size: 1.9 GB
Uploader: Sungeorge Trusted Uploader Site Friend Superman Sun
Torrent added: 06-02-2019, 11:05:05
Views: 82



Extratorrent Download Torrent Download Bollywood Torrents | 1337x
https://1337x.unblocked.llc/sub/73/0
Sorting Bollywood Torrents | 1337x
https://1337x.to/sort-sub/73/time/desc/7
Download Bollywood Torrents | 1337x
https://1337x.unblocker.win/sub/73/6
Download Agneepath (2012) Torrents | 1337x
https://1337x.unblocked.cx/movie/84858/Agneepath-2012
Download Bollywood Torrents | 1337x
https://1337x1.unblocked.is/sub/73/4
Download Sungeorge's Torrents | 1337x
https://x1337x.se/user/Sungeorge
TGx:Browse Torrents - torrentgalaxy.org
https://torrentgalaxy.org/torrents.php?cat=46
Download Sungeorge's Torrents | 1337x - …
https://1337x.123unblock.info/user/Sungeorge
Trending Movies Torrents | 1337x
https://1337x.unblocked.llc/trending/d/moviespretty
Download Sungeorge's Torrents | 1337x
https://1337x1.unblocked.is/user/Sungeorge



Agneepath (2012) Hindi 720p BRRip x264 AAC-Sun George (Requested)






https://www.imdb.com/title/tt1849718/













===================================================================


Source : Hon3yhd (Thanks)


General
Format : Matroska
Format version : Version 4 / Version 2
File size : 1.90 GiB
Duration : 2 h 54 min
Overall bit rate : 1 561 kb/s
Movie name : Agneepath (2012) Hindi 720p BRRip x264 AAC-Sun George (Requested)


===================================================================


Video
ID : 1
Format : AVC
Format/Info : Advanced Video Codec
Format profile : [email protected]
Format settings : CABAC / 5 Ref Frames
Format settings, CABAC : Yes
Format settings, ReFrames : 5 frames
Codec ID : V_MPEG4/ISO/AVC
Duration : 2 h 54 min
Bit rate : 1 500 kb/s
Width : 1 280 pixels
Height : 544 pixels
Display aspect ratio : 2.35:1
Frame rate mode : Constant
Frame rate : 29.970 (30000/1001) FPS
Color space : YUV
Chroma subsampling : 4:2:0
Bit depth : 8 bits
Scan type : Progressive
Bits/(Pixel*Frame) : 0.072
Stream size : 1.78 GiB (94%)
Title : Sun George


===================================================================


Audio
ID : 2
Format : AAC LC
Format/Info : Advanced Audio Codec Low Complexity
Codec ID : A_AAC-2
Duration : 2 h 54 min
Bit rate : 96.0 kb/s
Channel(s) : 2 channels
Channel layout : L R
Sampling rate : 48.0 kHz
Frame rate : 46.875 FPS (1024 SPF)
Compression mode : Lossy
Stream size : 120 MiB (6%)
Title : Sun George
Language : Hindi
Default : Yes
Forced : No





















   


Related Torrents
Browse Movies Torrents Related Torrents added recently in our database RSS  
Added  Size  Sort S  Sort L  Sort Health
Download Magnet English  Donnybrook_2019_HDRip_AC3_X264-CMRG[EtMovies] in Movies, by EtHD 8 minutes 1.3 GB 25770 27257
Download Magnet English  1st_Summoning_2019_HDRip_AC3_X264-CMRG[EtMovies] in Movies, by EtHD 8 minutes 1.3 GB 13761 75312
Download Magnet English  Vox_Lux_2018_BRRip_AC3_X264-CMRG[EtMovies] in Movies, by EtHD 8 minutes 1.6 GB 34904 16855
Download Magnet English  Trading_Paint_2019_720p_HDRip_800MB_x264-GalaxyRG in Movies, by mazemaze16 8 minutes 797.5 MB 5970 41046
Download Magnet English  Trading_Point_2019_HDRip_XviD_AC3-EVO in Movies, by Silmarillion 13 minutes 1.3 GB 76321 49559
Download Magnet English  Will_and_Grace_S10E12_720p_HDTV_x264-DHD_[eztv] in TV, by EZTVag 13 minutes 499.4 MB 34100 72604
Download Magnet English  Will_and_Grace_S10E12_720p_HDTV_x264-DHD[TGx] in TV, by mazemaze16 13 minutes 504.2 MB 43114 25948
Download Magnet English  Fam_S01E07_WEB_x264-TBS[TGx] in TV, by mazemaze16 18 minutes 250.4 MB 8125 91018
Download Magnet English  Vox_Lux_2018_BRRip_XviD_AC3-EVO in Movies, by Silmarillion 18 minutes 1.3 GB 12248 6765
Download Magnet English  American_Housewife_S03E13_Mo_Money_Mo_Problems_720p_AMZN_WEB___ in TV, by EZTVag 18 minutes 780.8 MB 62126 81394




Recent Searches

Home - Browse Torrents - Upload Torrent - Recent Torrents - Login - Register - FAQ

Can't load ExtraTorrent.Network
2006-2018 ExtraTorrent.Network