ExtraTorrent

Login   |   Register   |   Home





Browse Torrents
| Search Cloud | | | | | FAQ  

» » Agneepath (2012) Hindi 720p BRRip x264 AAC-Sun George (Requested)

Loading...
Torrent Download                                Magnet Link                                      Watch Online


Download Agneepath (2012) Hindi 720p BRRip x264 AAC-Sun George (Requested) extratorrent


Download torrent:
Info hash 147E1C62232FC6BE909855B1C3EFEF804C0CAD09
Torrent ID13998333
Comments: Sort Read Comments
Category: Movies
Health:
 Seeders: 3 |  Leechers: n/a |  Completed: n/a
Torrent language: Hindi Hindi
Total Size: 1.9 GB
Uploader: Sungeorge Trusted Uploader Site Friend Superman Sun
Torrent added: 06-02-2019, 11:05:05
Views: 117



Extratorrent Download Torrent Agneepath (2012) Hindi 720p BRRip x264 AAC …
https://1337x.unblocked.krd/torrent/3573850/Agneepath-2012-Hindi...
Agneepath (2012) Hindi 720p BRRip x264 AAC …
https://limetorrents.at/agneepath-2012-hindi-720p-brrip-x264-aac...
Agneepath (2012) Hindi 720p BRRip x264 AAC …
https://www.1337x.one/torrent/3573850/Agneepath-2012-Hindi-720p...
Agneepath (2012) Hindi 720p BRRip x264 AAC …
https://extratorrent.unblocked.krd/torrent/7528243/Agneepath+(2012...
Download torrent Agneepath (2012) Hindi 720p …
https://www.ettv.be/torrent/304212/agneepath-2012-hindi-720p-brrip...
Download Agneepath (2012) Hindi 720p BRRip …
https://ibit.uno/torrent/Agneepath-2012-Hindi-720p-BRRip-x264-AAC...
Agneepath (2012) Hindi 720p BRRip x264 AAC …
https://torrentz2.eu/147e1c62232fc6be909855b1c3efef804c0cad09
Agneepath (2012) Hindi 720p BRRip x264 AAC …
https://www.btzhizhu.me/cililianjie/34275292
Download Agneepath (2012) Torrents | 1337x
https://1337x.unblocked.krd/movie/84858/Agneepath-2012
Agneepath » DownTurk - Download For All
https://downturk.eu/tags/Agneepath



Agneepath (2012) Hindi 720p BRRip x264 AAC-Sun George (Requested)






https://www.imdb.com/title/tt1849718/













===================================================================


Source : Hon3yhd (Thanks)


General
Format : Matroska
Format version : Version 4 / Version 2
File size : 1.90 GiB
Duration : 2 h 54 min
Overall bit rate : 1 561 kb/s
Movie name : Agneepath (2012) Hindi 720p BRRip x264 AAC-Sun George (Requested)


===================================================================


Video
ID : 1
Format : AVC
Format/Info : Advanced Video Codec
Format profile : [email protected]
Format settings : CABAC / 5 Ref Frames
Format settings, CABAC : Yes
Format settings, ReFrames : 5 frames
Codec ID : V_MPEG4/ISO/AVC
Duration : 2 h 54 min
Bit rate : 1 500 kb/s
Width : 1 280 pixels
Height : 544 pixels
Display aspect ratio : 2.35:1
Frame rate mode : Constant
Frame rate : 29.970 (30000/1001) FPS
Color space : YUV
Chroma subsampling : 4:2:0
Bit depth : 8 bits
Scan type : Progressive
Bits/(Pixel*Frame) : 0.072
Stream size : 1.78 GiB (94%)
Title : Sun George


===================================================================


Audio
ID : 2
Format : AAC LC
Format/Info : Advanced Audio Codec Low Complexity
Codec ID : A_AAC-2
Duration : 2 h 54 min
Bit rate : 96.0 kb/s
Channel(s) : 2 channels
Channel layout : L R
Sampling rate : 48.0 kHz
Frame rate : 46.875 FPS (1024 SPF)
Compression mode : Lossy
Stream size : 120 MiB (6%)
Title : Sun George
Language : Hindi
Default : Yes
Forced : No























Related Torrents




Recent Searches

Home - Browse Torrents - Upload Torrent - Recent Torrents - Login - Register - FAQ

Can't load ExtraTorrent.Network
2006-2018 ExtraTorrent.Network