Website Shifted Kindly Click on Any Button to Enter This Site..





Loading...

                                                                                                                                 .







































































































































































ExtraTorrent

Login   |   Register   |   Home
Browse Torrents
| Search Cloud | | | | | FAQ  
» » Highway (2014) Hindi 720p WEB-DL x264 AC3 2 0 ESub-Sun George (Requested)

Download Highway (2014) Hindi 720p WEB-DL x264 AC3 2 0 ESub-Sun George (Requested) extratorrent


Download torrent: Download Magnet Highway (2014) Hindi 720p WEB-DL x264 AC3 2 0 ESub-Sun George (Requested)
Info hash C9E1C88B1B3851BC876661354BA4588A70BFE6C7
Torrent ID13998345
Comments: Sort Read Comments
Category: Movies
Health:
 Seeders: 3 |  Leechers: 5 |  Completed: 77
Torrent language: Hindi Hindi
Total Size: 1.5 GB
Uploader: Sungeorge Trusted Uploader Site Friend Superman Sun
Torrent added: 06-02-2019, 11:30:05
Views: 91



Extratorrent Download Torrent



Highway (2014) Hindi 720p WEB-DL x264 AC3 2.0 ESub-Sun George (Requested)






https://www.imdb.com/title/tt2980794/













===================================================================


Source : Hon3yhd (Thanks)


General
Format : Matroska
Format version : Version 4 / Version 2
File size : 1.50 GiB
Duration : 2 h 7 min
Overall bit rate : 1 688 kb/s
Movie name : Highway (2014) Hindi 720p WEB-DL x264 AC3 2.0 ESub-Sun George (Requested)


===================================================================


Video
ID : 1
Format : AVC
Format/Info : Advanced Video Codec
Format profile : [email protected]
Format settings : CABAC / 5 Ref Frames
Format settings, CABAC : Yes
Format settings, ReFrames : 5 frames
Codec ID : V_MPEG4/ISO/AVC
Duration : 2 h 7 min
Bit rate : 1 500 kb/s
Width : 1 280 pixels
Height : 720 pixels
Display aspect ratio : 16:9
Frame rate mode : Constant
Frame rate : 25.000 FPS
Color space : YUV
Chroma subsampling : 4:2:0
Bit depth : 8 bits
Scan type : Progressive
Bits/(Pixel*Frame) : 0.065
Stream size : 1.33 GiB (89%)
Title : Sun George


===================================================================


Audio
ID : 2
Format : AC-3
Format/Info : Audio Coding 3
Commercial name : Dolby Digital
Codec ID : A_AC3
Duration : 2 h 7 min
Bit rate mode : Constant
Bit rate : 192 kb/s
Channel(s) : 2 channels
Channel layout : L R
Sampling rate : 48.0 kHz
Frame rate : 31.250 FPS (1536 SPF)
Bit depth : 16 bits
Compression mode : Lossy
Stream size : 175 MiB (11%)
Title : Sun George
Language : Hindi
Service kind : Complete Main
Default : Yes
Forced : No














   


Related Torrents
Browse Movies Torrents Related Torrents added recently in our database RSS  
Added  Size  Sort S  Sort L  Sort Health
Download Magnet English  1st_Summoning_2019_1080p_WEB-DL_H264_AC3-EVO[EtHD] in Movies, by EtHD 2 minutes 3.6 GB 34663 62405
Download Magnet English  Egg_2019_HDRip_XviD_AC3-EVO[EtMovies] in Movies, by EtHD 2 minutes 1.3 GB 51618 30077
Download Magnet English  Trading_Paint_2019_HDRip_XviD_AC3-EVO[TGx] in Movies, by mazemaze16 7 minutes 1.3 GB 73796 57917
Download Magnet English  1st_Summoning_2019_1080p_WEB-DL_H264_AC3-EVO[TGx] in Movies, by mazemaze16 7 minutes 3.6 GB 76707 36901
Download Magnet English  1st_Summoning_2019_HDRip_XviD_AC3-EVO[TGx] in Movies, by mazemaze16 7 minutes 1.4 GB 45923 56233
Download Magnet English  Vox_Lux_2018_BRRip_XviD_AC3-EVO[TGx] in Movies, by mazemaze16 7 minutes 1.3 GB 52922 69108
Download Magnet English  Vox_Lux_2018_LIMITED_1080p_BluRay_x264-DRONES[EtHD] in Movies, by EtHD 7 minutes 8.8 GB 25724 15651
Download Magnet English  House_Hunters_International_S135E05_A_Family_Adventure_in_Bu___ in TV, by EZTVag 7 minutes 202.1 MB 71724 20629
Download Magnet English  Trading_Paint_2019_1080p_WEB-DL_DD5_1_H264-CMRG[EtHD] in Movies, by EtHD 12 minutes 3.0 GB 55618 61459
Download Magnet English  Trading_Point_2019_HDRip_XviD_AC3-EVO[EtMovies] in Movies, by EtHD 12 minutes 1.3 GB 37519 29206




Recent Searches

Home - Browse Torrents - Upload Torrent - Recent Torrents - Login - Register - FAQ

Can't load ExtraTorrent.Network
2006-2018 ExtraTorrent.Network