ExtraTorrent

Login   |   Register   |   Home





Browse Torrents
| Search Cloud | | | | | FAQ  

» » Highway (2014) Hindi 720p WEB-DL x264 AC3 2 0 ESub-Sun George (Requested)

Loading...
Torrent Download                                Magnet Link                                      Watch Online


Download Highway (2014) Hindi 720p WEB-DL x264 AC3 2 0 ESub-Sun George (Requested) extratorrent


Download torrent:
Info hash C9E1C88B1B3851BC876661354BA4588A70BFE6C7
Torrent ID13998345
Comments: Sort Read Comments
Category: Movies
Health:
 Seeders: 10 |  Leechers: 1 |  Completed: n/a
Torrent language: Hindi Hindi
Total Size: 1.5 GB
Uploader: Sungeorge Trusted Uploader Site Friend Superman Sun
Torrent added: 06-02-2019, 11:30:05
Views: 126



Extratorrent Download Torrent



Highway (2014) Hindi 720p WEB-DL x264 AC3 2.0 ESub-Sun George (Requested)






https://www.imdb.com/title/tt2980794/













===================================================================


Source : Hon3yhd (Thanks)


General
Format : Matroska
Format version : Version 4 / Version 2
File size : 1.50 GiB
Duration : 2 h 7 min
Overall bit rate : 1 688 kb/s
Movie name : Highway (2014) Hindi 720p WEB-DL x264 AC3 2.0 ESub-Sun George (Requested)


===================================================================


Video
ID : 1
Format : AVC
Format/Info : Advanced Video Codec
Format profile : [email protected]
Format settings : CABAC / 5 Ref Frames
Format settings, CABAC : Yes
Format settings, ReFrames : 5 frames
Codec ID : V_MPEG4/ISO/AVC
Duration : 2 h 7 min
Bit rate : 1 500 kb/s
Width : 1 280 pixels
Height : 720 pixels
Display aspect ratio : 16:9
Frame rate mode : Constant
Frame rate : 25.000 FPS
Color space : YUV
Chroma subsampling : 4:2:0
Bit depth : 8 bits
Scan type : Progressive
Bits/(Pixel*Frame) : 0.065
Stream size : 1.33 GiB (89%)
Title : Sun George


===================================================================


Audio
ID : 2
Format : AC-3
Format/Info : Audio Coding 3
Commercial name : Dolby Digital
Codec ID : A_AC3
Duration : 2 h 7 min
Bit rate mode : Constant
Bit rate : 192 kb/s
Channel(s) : 2 channels
Channel layout : L R
Sampling rate : 48.0 kHz
Frame rate : 31.250 FPS (1536 SPF)
Bit depth : 16 bits
Compression mode : Lossy
Stream size : 175 MiB (11%)
Title : Sun George
Language : Hindi
Service kind : Complete Main
Default : Yes
Forced : No
















Related Torrents
Browse Movies Torrents Related Torrents added recently in our database RSS  
Added  Size  Sort S  Sort L  Sort Health
Download Magnet English  Once_Upon_a_Time_in_London_2019_1080p_AMZN_x265_6CH_ReEnc-LU___ in Movies, by lumi265 15 minutes 1.7 GB 90391 65888
Download Magnet Serbian  Drzavni_Sluzbenik_S01E06_720p_HDTV_x264_-_ExYuSubs in TV, by Botanicar 15 minutes 749.0 MB 88747 79607
Download Magnet English  Eastenders_22nd_Apr__2019_1080p_(Deep61)_[WWRG] in TV, by Deep61 25 minutes 845.3 MB 9669 26412
Download Magnet English  Game_of_Thrones_S08E01_1080p_Webrip_HEVC_5_1_Omikron in TV, by OmiChannel 35 minutes 626.1 MB 38269 2191
Download Magnet German  The_Comedy_(2012)_[BluRay]_[720p]_[YTS]_[YIFY] in Movies, by YTSAGx 45 minutes 785.0 MB 42385 37564
Download Magnet English  The_Band_-_The_Last_Waltz_(1978)_1080p_BluRay_x264_DTS-HD_MA___ in Music, by Sartre 45 minutes 7.1 GB 41554 26926
Download Magnet English  House_of_Anubis_Season_1_720p_x264_Jassy in TV, by rahallivex1 50 minutes 6.1 GB 38706 29136
Download Magnet English  Bar_Rescue_S06E32_480p_x264-mSD_[eztv] in TV, by EZTVag 50 minutes 211.1 MB 57047 95995
Download Magnet English  Cops_S31E30_720p_WEB_x264-CookieMonster_[eztv] in TV, by EZTVag 50 minutes 439.4 MB 35842 71677
Download Magnet Spanish  Madre_2017_REPACK_720p_WEB-DL_h264_AC3-DEEP in Movies, by m1337e 50 minutes 328.2 MB 43086 86741




Recent Searches

Home - Browse Torrents - Upload Torrent - Recent Torrents - Login - Register - FAQ

Can't load ExtraTorrent.Network
2006-2018 ExtraTorrent.Network