ExtraTorrent

Login   |   Register   |   Home





Browse Torrents
| Search Cloud | | | | | FAQ  

» » Marvel One Shot - The Consultant (2011) (1080p BluRay x265 HEVC 10bit AC3 5 1 Anna) [UTR]

Loading...
Torrent Download                                Magnet Link                                      Watch Online


Download Marvel One Shot - The Consultant (2011) (1080p BluRay x265 HEVC 10bit AC3 5 1 Anna) [UTR] extratorrent


Download torrent:
Info hash 74BDEBC3DBB4B16AE632B95BB1A4F5C9EEDE9C21
Torrent ID13998346
Comments: Sort Read Comments
Category: Movies
Health:
 Seeders: 7 |  Leechers: 1 |  Completed: 209
Torrent language: English English
Total Size: 42.8 MB
Uploader: UTRCorp Trusted Uploader Site Friend Superman Sun
Torrent added: 06-02-2019, 11:30:05
Views: 120



Extratorrent Download Torrent









Media Information


Code:

General
Format                      : Matroska
Format version              : Version 4 / Version 2
File size                   : 42.8 MiB
Duration                    : 3 min 57 s
Overall bit rate            : 1 514 kb/s
Movie name                  : Marvel One-Shot - The Consultant
Encoded date                : UTC 2019-01-14 09:11:32
Writing application         : mkvmerge v9.2.0 ('Photograph') 64bit
Writing library             : libebml v1.3.3 + libmatroska v1.4.4
Cover                       : Yes
Attachments                 : cover.jpg

Video
ID                          : 1
Format                      : HEVC
Format/Info                 : High Efficiency Video Coding
Format profile              : Main [email protected]@Main
Codec ID                    : V_MPEGH/ISO/HEVC
Duration                    : 3 min 57 s
Bit rate                    : 721 kb/s
Width                       : 1 920 pixels
Height                      : 818 pixels
Display aspect ratio        : 2.35:1
Frame rate mode             : Constant
Frame rate                  : 23.976 (24000/1001) FPS
Color space                 : YUV
Chroma subsampling          : 4:2:0
Bit depth                   : 10 bits
Bits/(Pixel*Frame)          : 0.019
Stream size                 : 20.4 MiB (48%)
Title                       : Marvel One-Shot - The Consultant
Writing library             : x265 2.5:[Windows][GCC 7.1.0][64 bit] 10bit
Encoding settings           : cpuid=1050111 / frame-threads=2 / numa-pools=4 / wpp / no-pmode / no-pme / no-psnr / no-ssim / log-level=2 / input-csp=1 / input-res=1920x818 / interlace=0 / total-frames=0 / level-idc=0 / high-tier=1 / uhd-bd=0 / ref=3 / no-allow-non-conformance / no-repeat-headers / annexb / no-aud / no-hrd / info / hash=0 / no-temporal-layers / open-gop / min-keyint=24 / keyint=240 / bframes=4 / b-adapt=0 / b-pyramid / bframe-bias=0 / rc-lookahead=15 / lookahead-slices=5 / scenecut=40 / no-intra-refresh / ctu=64 / min-cu-size=8 / no-rect / no-amp / max-tu-size=32 / tu-inter-depth=1 / tu-intra-depth=1 / limit-tu=0 / rdoq-level=0 / dynamic-rd=0.00 / no-ssim-rd / signhide / no-tskip / nr-intra=0 / nr-inter=0 / no-constrained-intra / strong-intra-smoothing / max-merge=2 / limit-refs=3 / no-limit-modes / me=1 / subme=2 / merange=57 / temporal-mvp / weightp / no-weightb / no-analyze-src-pics / deblock=0:0 / sao / no-sao-non-deblock / rd=2 / no-early-skip / rskip / fast-intra / no-tskip-fast / no-cu-lossless / no-b-intra / rdpenalty=0 / psy-rd=2.00 / psy-rdoq=0.00 / no-rd-refine / analysis-reuse-mode=0 / no-lossless / cbqpoffs=0 / crqpoffs=0 / rc=crf / crf=22.0 / qcomp=0.60 / qpstep=4 / stats-write=0 / stats-read=0 / ipratio=1.40 / pbratio=1.30 / aq-mode=1 / aq-strength=1.00 / cutree / zone-count=0 / no-strict-cbr / qg-size=32 / no-rc-grain / qpmax=69 / qpmin=0 / no-const-vbv / sar=1 / overscan=0 / videoformat=5 / range=0 / colorprim=1 / transfer=1 / colormatrix=1 / chromaloc=0 / display-window=0 / max-cll=0,0 / min-luma=0 / max-luma=1023 / log2-max-poc-lsb=8 / vui-timing-info / vui-hrd-info / slices=1 / opt-qp-pps / opt-ref-list-length-pps / no-multi-pass-opt-rps / scenecut-bias=0.05 / no-opt-cu-delta-qp / no-aq-motion / no-hdr / no-hdr-opt / no-dhdr10-opt / analysis-reuse-level=5 / scale-factor=0 / refine-intra=0 / refine-inter=0 / refine-mv=0 / no-limit-sao / ctu-info=0
Language                    : English
Default                     : Yes
Forced                      : No
Color range                 : Limited
Color primaries             : BT.709
Transfer characteristics    : BT.709
Matrix coefficients         : BT.709

Audio
ID                          : 2
Format                      : AC-3
Format/Info                 : Audio Coding 3
Mode extension              : CM (complete main)
Format settings, Endianness : Big
Codec ID                    : A_AC3
Duration                    : 3 min 57 s
Bit rate mode               : Constant
Bit rate                    : 640 kb/s
Channel(s)                  : 6 channels
Channel positions           : Front: L C R, Side: L R, LFE
Sampling rate               : 48.0 kHz
Frame rate                  : 31.250 FPS (1536 spf)
Bit depth                   : 16 bits
Compression mode            : Lossy
Stream size                 : 18.1 MiB (42%)
Title                       : Dolby Digital 5.1
Language                    : English
Default                     : Yes
Forced                      : No

Text #1
ID                          : 3
Format                      : PGS
Muxing mode                 : zlib
Codec ID                    : S_HDMV/PGS
Codec ID/Info               : Picture based subtitle format used on BDs/HD-DVDs
Duration                    : 3 min 36 s
Bit rate                    : 15.3 kb/s
Count of elements           : 128
Stream size                 : 405 KiB (1%)
Language                    : Danish
Default                     : No
Forced                      : No

Text #2
ID                          : 4
Format                      : PGS
Muxing mode                 : zlib
Codec ID                    : S_HDMV/PGS
Codec ID/Info               : Picture based subtitle format used on BDs/HD-DVDs
Duration                    : 3 min 36 s
Bit rate                    : 16.1 kb/s
Count of elements           : 128
Stream size                 : 426 KiB (1%)
Language                    : German
Default                     : No
Forced                      : No

Text #3
ID                          : 5
Format                      : PGS
Muxing mode                 : zlib
Codec ID                    : S_HDMV/PGS
Codec ID/Info               : Picture based subtitle format used on BDs/HD-DVDs
Duration                    : 2 min 51 s
Bit rate                    : 19.9 kb/s
Count of elements           : 124
Stream size                 : 415 KiB (1%)
Language                    : English
Default                     : Yes
Forced                      : Yes

Text #4
ID                          : 6
Format                      : PGS
Muxing mode                 : zlib
Codec ID                    : S_HDMV/PGS
Codec ID/Info               : Picture based subtitle format used on BDs/HD-DVDs
Duration                    : 3 min 36 s
Bit rate                    : 15.0 kb/s
Count of elements           : 128
Stream size                 : 396 KiB (1%)
Language                    : Spanish
Default                     : No
Forced                      : No

Text #5
ID                          : 7
Format                      : PGS
Muxing mode                 : zlib
Codec ID                    : S_HDMV/PGS
Codec ID/Info               : Picture based subtitle format used on BDs/HD-DVDs
Duration                    : 3 min 36 s
Bit rate                    : 14.6 kb/s
Count of elements           : 128
Stream size                 : 386 KiB (1%)
Language                    : French
Default                     : No
Forced                      : No

Text #6
ID                          : 8
Format                      : PGS
Muxing mode                 : zlib
Codec ID                    : S_HDMV/PGS
Codec ID/Info               : Picture based subtitle format used on BDs/HD-DVDs
Duration                    : 3 min 36 s
Bit rate                    : 14.9 kb/s
Count of elements           : 128
Stream size                 : 394 KiB (1%)
Language                    : Italian
Default                     : No
Forced                      : No

Text #7
ID                          : 9
Format                      : PGS
Muxing mode                 : zlib
Codec ID                    : S_HDMV/PGS
Codec ID/Info               : Picture based subtitle format used on BDs/HD-DVDs
Duration                    : 3 min 36 s
Bit rate                    : 14.6 kb/s
Count of elements           : 128
Stream size                 : 386 KiB (1%)
Language                    : Dutch
Default                     : No
Forced                      : No

Text #8
ID                          : 10
Format                      : PGS
Muxing mode                 : zlib
Codec ID                    : S_HDMV/PGS
Codec ID/Info               : Picture based subtitle format used on BDs/HD-DVDs
Duration                    : 3 min 36 s
Bit rate                    : 14.5 kb/s
Count of elements           : 128
Stream size                 : 383 KiB (1%)
Language                    : Norwegian
Default                     : No
Forced                      : No

Text #9
ID                          : 11
Format                      : PGS
Muxing mode                 : zlib
Codec ID                    : S_HDMV/PGS
Codec ID/Info               : Picture based subtitle format used on BDs/HD-DVDs
Duration                    : 3 min 36 s
Bit rate                    : 12.7 kb/s
Count of elements           : 128
Stream size                 : 337 KiB (1%)
Language                    : Finnish
Default                     : No
Forced                      : No

Text #10
ID                          : 12
Format                      : PGS
Muxing mode                 : zlib
Codec ID                    : S_HDMV/PGS
Codec ID/Info               : Picture based subtitle format used on BDs/HD-DVDs
Duration                    : 3 min 36 s
Bit rate                    : 14.9 kb/s
Count of elements           : 128
Stream size                 : 394 KiB (1%)
Language                    : Swedish
Default                     : No
Forced                      : No



Source Information


Code:

BluRay on Hand



We have no issue with individuals posting or re-uploading our torrents on a platform we aren't on. However, if this is something you'd like to do, please do so in a 'as-is' format. We ask that you do not create a new torrent, include all descriptions you see above including the UTR logo, tags, notes and screenshots. If you'd like to become a permanent poster on a website we don't post to, feel free to get in contact with a UniTeam member.







Related Torrents




Recent Searches

Home - Browse Torrents - Upload Torrent - Recent Torrents - Login - Register - FAQ

Can't load ExtraTorrent.Network
2006-2018 ExtraTorrent.Network