Website Shifted Kindly Click on Any Button to Enter This Site..





Loading...

                                                                                                                                 .







































































































































































ExtraTorrent

Login   |   Register   |   Home
Browse Torrents
| Search Cloud | | | | | FAQ  
» » Six (2019) Season 1 Complete Hot Hindi Dubbed 720p WEB-DL x264 AAC 1 5GB -HD

Download Six (2019) Season 1 Complete Hot Hindi Dubbed 720p WEB-DL x264 AAC 1 5GB -HD extratorrent


Download torrent: Download Magnet Six (2019) Season 1 Complete Hot Hindi Dubbed 720p WEB-DL x264 AAC 1 5GB -HD
Info hash 29A314DF0EC7B94EA5E8F1BB806925121C6D696F
Torrent ID13998363
Comments: Sort Read Comments
Category: Movies
Health:
 Seeders: 1 |  Leechers: n/a |  Completed: 15
Torrent language: Hindi Hindi
Total Size: 1.5 GB
Uploader: likuaba Trusted Uploader Site Friend Superman Sun
Torrent added: 06-02-2019, 12:05:05
Views: 212



Extratorrent Download Torrent



https://hdfilmboss.cc/
https://1337xhd.com/



Official Website https://hdfilmboss.cc/
Official Website https://1337xhd.com/



General
Format : Matroska
Format version : Version 4
File size : 1.52 GiB
Duration : 3 h 17 min
Overall bit rate : 1 101 kb/s
Movie name : www.HDFilmBoss.cc
Writing application : Lavf58.26.100
Writing library : Lavf58.26.100
ErrorDetectionType : Per level 1

Video
ID : 1
Format : AVC
Format/Info : Advanced Video Codec
Format profile : [email protected]
Format settings : CABAC / 4 Ref Frames
Format settings, CABAC : Yes
Format settings, RefFrames : 4 frames
Codec ID : V_MPEG4/ISO/AVC
Duration : 3 h 17 min
Bit rate : 2 037 kb/s
Nominal bit rate : 906 kb/s
Width : 1 280 pixels
Height : 720 pixels
Display aspect ratio : 16:9
Frame rate mode : Constant
Frame rate : 25.000 FPS
Color space : YUV
Chroma subsampling : 4:2:0
Bit depth : 8 bits
Scan type : Progressive
Bits/(Pixel*Frame) : 0.088
Stream size : 2.81 GiB
Title : www.1337xHD.Com
Writing library : x264 core 148 r2643 5c65704
Default : Yes
Forced : No

Audio
ID : 2
Format : AAC LC
Format/Info : Advanced Audio Codec Low Complexity
Codec ID : A_AAC-2
Duration : 3 h 17 min
Bit rate : 128 kb/s
Channel(s) : 1 channel
Channel layout : C
Sampling rate : 44.1 kHz
Frame rate : 43.066 FPS (1024 SPF)
Compression mode : Lossy
Delay relative to video : -86 ms
Stream size : 181 MiB (12%)
Title : www.1337xHD.Com
Writing library : Lavc58.46.100 libfdk_aac
Language : English
Default : Yes
Forced : No














   


Related Torrents




Recent Searches

Home - Browse Torrents - Upload Torrent - Recent Torrents - Login - Register - FAQ

Can't load ExtraTorrent.Network
2006-2018 ExtraTorrent.Network