ExtraTorrent

Login   |   Register   |   Home





Browse Torrents
| Search Cloud | | | | | FAQ  

» » World War Z (2013) (Dual Audio) 720p BluRay {Hindi DD 5 1 + English DD 5 1} ESubs-Sun George

Loading...
Torrent Download                                Magnet Link                                      Watch Online


Download World War Z (2013) (Dual Audio) 720p BluRay {Hindi DD 5 1 + English DD 5 1} ESubs-Sun George extratorrent


Download torrent:
Info hash 687E9C1C534E31050CFD3EF329F00D9A3D4FFB7A
Torrent ID13998435
Comments: Sort Read Comments
Category: Movies
Health:
 Seeders: n/a |  Leechers: n/a |  Completed: n/a
Torrent language: Other
Total Size:
Uploader: Trusted Uploader Site Friend Superman Sun
Torrent added: 06-02-2019, 14:20:05
Views: 278



Extratorrent Download Torrent



World War Z (2013) (Dual Audio) 720p BluRay {Hindi DD 5.1 + English DD 5.1} ESubs-Sun George






https://www.imdb.com/title/tt0816711/











===================================================================


General
Format : Matroska
Format version : Version 4 / Version 2
File size : 1.82 GiB
Duration : 1 h 56 min
Overall bit rate : 2 247 kb/s
Movie name : World War Z (2013) (Dual Audio) 720p BluRay {Hindi DD 5.1 + English DD 5.1} ESubs-Sun George


===================================================================


Video
ID : 1
Format : AVC
Format/Info : Advanced Video Codec
Format profile : [email protected]
Format settings : CABAC / 5 Ref Frames
Format settings, CABAC : Yes
Format settings, ReFrames : 5 frames
Codec ID : V_MPEG4/ISO/AVC
Duration : 1 h 56 min
Bit rate : 1 500 kb/s
Width : 1 280 pixels
Height : 544 pixels
Display aspect ratio : 2.35:1
Frame rate mode : Constant
Frame rate : 23.976 (24000/1001) FPS
Color space : YUV
Chroma subsampling : 4:2:0
Bit depth : 8 bits
Scan type : Progressive
Bits/(Pixel*Frame) : 0.090
Stream size : 1.20 GiB (66%)
Title : Sun George


===================================================================


Audio #1
ID : 2
Format : AC-3
Format/Info : Audio Coding 3
Commercial name : Dolby Digital
Codec ID : A_AC3
Duration : 1 h 56 min
Bit rate mode : Constant
Bit rate : 384 kb/s
Channel(s) : 6 channels
Channel layout : L R C LFE Ls Rs
Sampling rate : 48.0 kHz
Frame rate : 31.250 FPS (1536 SPF)
Bit depth : 16 bits
Compression mode : Lossy
Stream size : 319 MiB (17%)
Title : Sun George
Language : English
Service kind : Complete Main
Default : No
Forced : No


===================================================================


Audio #2
ID : 3
Format : AC-3
Format/Info : Audio Coding 3
Commercial name : Dolby Digital
Codec ID : A_AC3
Duration : 1 h 56 min
Bit rate mode : Constant
Bit rate : 384 kb/s
Channel(s) : 6 channels
Channel layout : L R C LFE Ls Rs
Sampling rate : 48.0 kHz
Frame rate : 31.250 FPS (1536 SPF)
Bit depth : 16 bits
Compression mode : Lossy
Stream size : 319 MiB (17%)
Title : Sun George
Language : Hindi
Service kind : Complete Main
Default : Yes
Forced : No


===================================================================


Text
ID : 4
Format : UTF-8
Codec ID : S_TEXT/UTF8
Codec ID/Info : UTF-8 Plain Text
Duration : 1 h 46 min
Bit rate : 55 b/s
Count of elements : 1514
Stream size : 43.9 KiB (0%)
Title : Sun George
Language : English
Default : Yes
Forced : Yes




















Related Torrents




Recent Searches

Home - Browse Torrents - Upload Torrent - Recent Torrents - Login - Register - FAQ

Can't load ExtraTorrent.Network
2006-2018 ExtraTorrent.Network