ExtraTorrent

Login   |   Register   |   Home
Loading...
Loading...
Browse Torrents
| Search Cloud | | | | | FAQ  
» » Fantastic Beasts The Crimes Of Grindelwald 2018 EXTENDED 1080p Bluray Dual Audio Hindi English BD5 1 AAC x264 MoviesMB

Download Fantastic Beasts The Crimes Of Grindelwald 2018 EXTENDED 1080p Bluray Dual Audio Hindi English BD5 1 AAC x264 MoviesMB extratorrent


Download torrent: Download Magnet Fantastic Beasts The Crimes Of Grindelwald 2018 EXTENDED 1080p Bluray Dual Audio Hindi English BD5 1 AAC x264 MoviesMB
Info hash A7F8AA8214A1586A392A404A832DF5CF04A64CC5
Torrent ID14019895
Comments: Sort Read Comments
Category: Movies
Health:
 Seeders: 8 |  Leechers: 6 |  Completed: 272
Torrent language: Hindi Hindi
Total Size: 1.8 GB
Uploader: abuhamza420 Trusted Uploader Site Friend Superman Sun
Torrent added: 14-03-2019, 07:50:05
Views: 23



Extratorrent Download Torrent







Thanks Hammer & Peter For Audio

Fantastic.Beasts.The.Crimes.Of.Grindelwald.2018.EXTENDED.1080p.Bluray.Dual.Audio.Hindi.English.BD5.1.AAC.x264.MoviesMB


MoviesMB


Downloadhub.Icu


Buy PowerFull VPS And RDP From RDPArena.com

Use Coupon EXTRADESI get 30% Discount on All RDP and VPS Plans






Video
ID : 1
Format : AVC
Format/Info : Advanced Video Codec
Format profile : [email protected]
Format settings : CABAC / 5 Ref Frames
Format settings, CABAC : Yes
Format settings, RefFrames : 5 frames
Codec ID : V_MPEG4/ISO/AVC
Duration : 2 h 20 min
Bit rate : 1 592 kb/s
Width : 1 920 pixels
Height : 800 pixels
Display aspect ratio : 2.40:1
Frame rate mode : Constant
Frame rate : 23.976 (24000/1001) FPS
Color space : YUV
Chroma subsampling : 4:2:0
Bit depth : 8 bits
Scan type : Progressive
Bits/(Pixel*Frame) : 0.043
Stream size : 1.57 GiB (86%)
Title : MoviesMB
Writing library : x264 core 157 r2935 545de2f
Language : English
Default : Yes
Forced : No
Color range : Limited
Color primaries : Generic film
Transfer characteristics : BT.709
Matrix coefficients : BT.709

Audio #1
ID : 2
Format : AAC
Format/Info : Advanced Audio Codec
Format profile : LC
Codec ID : A_AAC-2
Duration : 2 h 20 min
Bit rate : 128 kb/s
Channel(s) : 6 channels
Channel positions : Front: L C R, Side: L R, LFE
Sampling rate : 48.0 kHz
Frame rate : 46.875 FPS (1024 SPF)
Compression mode : Lossy
Delay relative to video : 9 ms
Stream size : 129 MiB (7%)
Title : MoviesMB
Language : Hindi
Default : Yes
Forced : No

Audio #2
ID : 3
Format : AAC
Format/Info : Advanced Audio Codec
Format profile : LC
Codec ID : A_AAC-2
Duration : 2 h 20 min
Bit rate : 128 kb/s
Channel(s) : 6 channels
Channel positions : Front: L C R, Side: L R, LFE
Sampling rate : 48.0 kHz
Frame rate : 46.875 FPS (1024 SPF)
Compression mode : Lossy
Delay relative to video : 9 ms
Stream size : 129 MiB (7%)
Title : MoviesMB
Language : English
Default : No
Forced : No

Text
ID : 4
Format : PGS
Muxing mode : zlib
Codec ID : S_HDMV/PGS
Codec ID/Info : Picture based subtitle format used on BDs/HD-DVDs
Duration : 2 h 20 min
Bit rate : 26.8 kb/s
Count of elements : 3126
Stream size : 27.0 MiB (1%)
Title : MoviesMB
Language : English
Default : Yes
Forced : No

Menu
00:00:00.000 : en:00:00:00.000
00:07:15.310 : en:00:07:15.310
00:22:19.713 : en:00:22:19.713
00:34:26.856 : en:00:34:26.856
00:47:43.652 : en:00:47:43.652
00:57:10.761 : en:00:57:10.761
01:05:06.111 : en:01:05:06.111
01:18:47.431 : en:01:18:47.431
01:27:32.372 : en:01:27:32.372
01:41:58.821 : en:01:41:58.821
01:50:17.319 : en:01:50:17.319
01:58:50.999 : en:01:58:50.999
02:07:40.486 : en:02:07:40.486














   


Related Torrents




Recent Searches

Home - Browse Torrents - Upload Torrent - Recent Torrents - Login - Register - FAQ

Can't load ExtraTorrent.Network
2006-2018 ExtraTorrent.Network