ExtraTorrent

Login   |   Register   |   Home
Loading...
Loading...
Browse Torrents
| Search Cloud | | | | | FAQ  
» » The Old Man & the Gun (2018)Mp-4 X264 1080p ACC[DaScubaDude]

Download The Old Man & the Gun (2018)Mp-4 X264 1080p ACC[DaScubaDude] extratorrent


Download torrent: Download Magnet The Old Man & the Gun (2018)Mp-4 X264 1080p ACC[DaScubaDude]
Info hash DCDBB93FBCA513F3B031C1A51505FE9245B3E73C
Torrent ID14019966
Comments: Sort Read Comments
Category: Movies
Health:
 Seeders: 10 |  Leechers: n/a |  Completed: 6
Torrent language: English English
Total Size: 1.5 GB
Uploader: dascuba1337 Trusted Uploader Site Friend Superman Sun
Torrent added: 14-03-2019, 11:35:04
Views: 15



Extratorrent Download Torrent Old Man (song) - Wikipedia
en.wikipedia.org › Ben Keith › pedal steel guitar
Old Man | Definition of Old Man by Merriam-Webster
https://www.merriam-webster.com/dictionary/old man
Old Man of Storr on the Isle of Skye in Scotland.
https://www.isleofskye.com/.../top-ten-skye-walks/old-man-of-storr
The Old Man Hong Kong
theoldmanhk.com
The Old Man and the Sea - Wikipedia
https://en.wikipedia.org/wiki/The_Old_Man_and_the_Sea
Old Man Luedecke
oldmanluedecke.ca
Old Man's Bali
https://oldmans.net
The Old Man and The Sea: Ernest Hemingway: …
www.amazon.com › Books › Literature & Fiction › Genre Fiction
1 Boring Old Man
1boringoldman.com
Old man - Free BBW, Fat, Chubby tube porn videos
www.fatmomtube.com/en/162/old_man




[youtube]RgmigVEsSOo[/youtube]
IMDb Info for this Film


General
Complete name : The Old Man and the Gun
Format : MPEG-4
Format profile : Base Media / Version 2
Codec ID : mp42 (mp42/isom/avc1)
File size : 1.50 GiB
Duration : 1 h 33 min
Overall bit rate mode : Variable
Overall bit rate : 2 300 kb/s
Movie name : The Old Man and the Gun.theatrical_1
Album : The Old Man and the Gun
Encoded date : UTC 2019-03-13 18:12:57
Tagged date : UTC 2019-03-13 18:55:52
Writing application : DVDFab 11.0.1.8
Cover : Yes

Video
ID : 1
Format : AVC
Format/Info : Advanced Video Codec
Format profile : [email protected]
Format settings : CABAC / 2 Ref Frames
Format settings, CABAC : Yes
Format settings, RefFrames : 2 frames
Format settings, GOP : M=1, N=24
Codec ID : avc1
Codec ID/Info : Advanced Video Coding
Duration : 1 h 33 min
Bit rate mode : Variable
Bit rate : 1 818 kb/s
Maximum bit rate : 2 776 kb/s
Width : 1 920 pixels
Height : 804 pixels
Display aspect ratio : 2.40:1
Frame rate mode : Constant
Frame rate : 23.976 (24000/1001) FPS
Color space : YUV
Chroma subsampling : 4:2:0
Bit depth : 8 bits
Scan type : Progressive
Bits/(Pixel*Frame) : 0.049
Stream size : 1.18 GiB (79%)
Encoded date : UTC 2019-03-13 18:12:57
Tagged date : UTC 2019-03-13 18:55:52
Color primaries : BT.709
Transfer characteristics : BT.709
Matrix coefficients : BT.709
Menus : 5

Audio
ID : 2
Format : AAC
Format/Info : Advanced Audio Codec
Format profile : LC
Codec ID : mp4a-40-2
Duration : 1 h 33 min
Bit rate mode : Variable
Bit rate : 450 kb/s
Channel(s) : 6 channels
Channel positions : Front: L C R, Side: L R, LFE
Sampling rate : 48.0 kHz
Frame rate : 46.875 FPS (1024 SPF)
Compression mode : Lossy
Stream size : 298 MiB (19%)
Title : English (aac 5.1)
Language : English
Default : Yes
Alternate group : 1
Encoded date : UTC 2019-03-13 18:12:57
Tagged date : UTC 2019-03-13 18:55:52

Text #1
ID : 3
Format : VobSub
Codec ID : mp4s-E0
Codec ID/Info : The same subtitle format used on DVDs
Duration : 1 h 30 min
Bit rate mode : Variable
Bit rate : 10.8 kb/s
Maximum bit rate : 4 206 Mb/s
Stream size : 6.97 MiB (0%)
Language : English
Default : Yes
Forced : No
Alternate group : 2
Encoded date : UTC 2019-03-13 18:12:57
Tagged date : UTC 2019-03-13 18:54:50





   


Related Torrents




Recent Searches

Home - Browse Torrents - Upload Torrent - Recent Torrents - Login - Register - FAQ

Can't load ExtraTorrent.Network
2006-2018 ExtraTorrent.Network