ExtraTorrent

Login   |   Register   |   Home
Loading...
Loading...
Browse Torrents
| Search Cloud | | | | | FAQ  
» » Dil Jo Na Keh Saka 2017 Untouched WebDL Hindi 1080p AVC DDP 2 0 ESub - mkvCinemas [Telly]

Download Dil Jo Na Keh Saka 2017 Untouched WebDL Hindi 1080p AVC DDP 2 0 ESub - mkvCinemas [Telly] extratorrent


Download torrent: Download Magnet Dil Jo Na Keh Saka 2017 Untouched WebDL Hindi 1080p AVC DDP 2 0 ESub - mkvCinemas [Telly]
Info hash 3835CE9FE065BA2C3A69CAF4B2BBAB9065AFD7C1
Torrent ID14019985
Comments: Sort Read Comments
Category: Movies
Health:
 Seeders: 5 |  Leechers: 5 |  Completed: 123
Torrent language: Hindi Hindi
Total Size: 4.4 GB
Uploader: mkvCinemas Trusted Uploader Site Friend Superman Sun
Torrent added: 14-03-2019, 12:20:04
Views: 35



Extratorrent Download Torrent Dil Jo Na Keh Saka 2017 Untouched WebDL Hindi …
https://1337x.is/torrent/3648639/Dil-Jo-Na-Keh-Saka-2017-Untouched...
Dil Jo Na Keh Saka 2017 Untouched WebDL Hindi …
https://torrentz2.eu/3835ce9fe065ba2c3a69caf4b2bbab9065afd7c1
Flat 211 2017 Untouched WebDL Hindi 1080p …
maomaobt.cc/i/l_su5qVJ8G-4L5Ay-Ra-kGARjNO.html
Bollywood/Desi Torrents - Page 2 - …
https://extratorrent.unblockall.org/category/558/Bollywood/Desi...
Kadvi Hawa 2017 WebRip Hindi 720p x264 AAC …
nanrenbt.me/i/VIrCSth-IO0PF9KPROkf1g4X0mH.html
Trending Movies Torrents | 1337x
https://x1337x.ws/trending/d/moviespretty
Download Bollywood Torrents | 1337x
https://1337x1.unblocked.lol/sub/73/3
Saka Download - DHT Search
https://www.digbt.org/search/Saka
mkvCinemas.live - Baaghi 2 - 2018 Hindi WebRip …
nanrenbt.me/i/q8yrAArlQmNhufD6K90y_DvAd6H.html
Download Movies Torrents | 1337x
https://1337x1.unblocked.lol/cat/Movies/27









********************************

Dil Jo Na Keh Saka 2017 Untouched WebDL Hindi 1080p AVC DDP 2.0 ESub - mkvCinemas [Telly]

********************************

Mediainfo:-
Format : Matroska
Format version : Version 4 / Version 2
File size : 4.38 GiB
Duration : 2h 5mn
Overall bit rate : 5 011 Kbps
Encoded date : UTC 2019-03-14 08:43:45
Writing application : mkvmerge v25.0.0 ('Prog Noir') 32-bit
Writing library : libebml v1.3.6 + libmatroska v1.4.9
DURATION : 02:04:04.281000000
NUMBER_OF_FRAMES : 1713
NUMBER_OF_BYTES : 56796
_STATISTICS_WRITING_APP : mkvmerge v25.0.0 ('Prog Noir') 32-bit
_STATISTICS_WRITING_DATE_UT : 2019-03-14 08:43:45
_STATISTICS_TAGS : BPS DURATION NUMBER_OF_FRAMES NUMBER_OF_BYTES

Video
ID : 1
Format : AVC
Format/Info : Advanced Video Codec
Format profile : [email protected]
Format settings, CABAC : Yes
Format settings, ReFrames : 4 frames
Codec ID : V_MPEG4/ISO/AVC
Duration : 2h 5mn
Bit rate : 4 688 Kbps
Width : 1 920 pixels
Height : 1 080 pixels
Display aspect ratio : 16:9
Frame rate mode : Constant
Frame rate : 25.000 fps
Color space : YUV
Chroma subsampling : 4:2:0
Bit depth : 8 bits
Scan type : Progressive
Bits/(Pixel*Frame) : 0.090
Stream size : 4.10 GiB (94%)
Default : Yes
Forced : No
Color primaries : BT.709
Transfer characteristics : BT.709
Matrix coefficients : BT.709
Color range : Limited

Audio
ID : 2
Format : E-AC-3
Format/Info : Audio Coding 3
Format settings, Endianness : Big
Codec ID : A_EAC3
Duration : 2h 5mn
Bit rate mode : Constant
Bit rate : 224 Kbps
Channel(s) : 2 channels
Channel positions : Front: L R
Sampling rate : 48.0 KHz
Compression mode : Lossy
Stream size : 200 MiB (4%)
Title : Hindi
Language : Hindi
Default : No
Forced : No

Text
ID : 3
Format : UTF-8
Codec ID : S_TEXT/UTF8
Codec ID/Info : UTF-8 Plain Text
Title : English [SDH]
Language : English
Default : No
Forced : No


********************************

Wherever you Share our Stuffs, Give Proper Credit to "mkvCinemas @Team Telly"
We Keep All Torrents. In case of re-seed, please pm.


********************************







********************************



********************************





   


Related Torrents
Browse Movies Torrents Related Torrents added recently in our database RSS  
Added  Size  Sort S  Sort L  Sort Health
Download Magnet English  48_Hours_S31E26_WEB_x264-LiGATE_[eztv] in TV, by EZTVag 4 minutes 516.4 MB 17837 31719
Download Magnet English  48_Hours_S31E27_WEB_x264-LiGATE_[eztv] in TV, by EZTVag 4 minutes 515.1 MB 70461 94520
Download Magnet English  The_Resident_S02E18_720p_WEB_x264-TBS[TGx] in TV, by mazemaze16 4 minutes 1.1 GB 81737 81708
Download Magnet English  The_Resident_S02E18_WEB_x264-TBS[TGx] in TV, by mazemaze16 4 minutes 357.4 MB 58070 89912
Download Magnet English  48_Hours_S31E28_WEB_x264-LiGATE_[eztv] in TV, by EZTVag 4 minutes 514.7 MB 17636 26523
Download Magnet English  60_Minutes_S51E23_480p_x264-mSD[TGx] in TV, by mazemaze16 14 minutes 157.2 MB 25671 31114
Download Magnet English  Bob's_Burgers_(2011)_-_S09E18_(1080p_WEB-DL_x265_HEVC_10bit____ in TV, by QxR 14 minutes 177.8 MB 81730 32539
Download Magnet English  Family_Guy_(1999)_-_S17E16_(1080p_WEB-DL_x265_HEVC_10bit_AAC___ in TV, by QxR 14 minutes 178.0 MB 59721 75112
Download Magnet English  The_Simpsons_(1989)_-_S30E18_(1080p_WEB-DL_x265_HEVC_10bit_A___ in TV, by QxR 14 minutes 179.1 MB 31449 48640
Download Magnet English  The_Final_Wish_(2018)_[BluRay]_[720p]_[YTS]_[YIFY] in Movies, by YTSAGx 24 minutes 815.3 MB 63020 48129




Recent Searches

Home - Browse Torrents - Upload Torrent - Recent Torrents - Login - Register - FAQ

Can't load ExtraTorrent.Network
2006-2018 ExtraTorrent.Network