ExtraTorrent

Login   |   Register   |   Home
Loading...
Loading...
Browse Torrents
| Search Cloud | | | | | FAQ  
» » Kadvi Hawa aka Dark Wind (2017) Hindi - 720p WEB-DL - x264 - AC3 - ESubs -Sun George (Requested)

Download Kadvi Hawa aka Dark Wind (2017) Hindi - 720p WEB-DL - x264 - AC3 - ESubs -Sun George (Requested) extratorrent


Download torrent: Download Magnet Kadvi Hawa aka Dark Wind (2017) Hindi - 720p WEB-DL - x264 - AC3 - ESubs -Sun George (Requested)
Info hash E25D4416A825EE585F2FE2ABC9C91BF79B423D22
Torrent ID14019990
Comments: Sort Read Comments
Category: Movies
Health:
 Seeders: 1 |  Leechers: n/a |  Completed: 2
Torrent language: Hindi Hindi
Total Size: 1.5 GB
Uploader: Sungeorge Trusted Uploader Site Friend Superman Sun
Torrent added: 14-03-2019, 12:40:04
Views: 58



Extratorrent Download Torrent



Kadvi Hawa aka Dark Wind (2017) Hindi - 720p WEB-DL - x264 - AC3 - ESubs -Sun George (Requested)






https://www.imdb.com/title/tt6143422/











===================================================================


Source : DTOne (Thanks)


General
Format : Matroska
Format version : Version 4
File size : 1.43 GiB
Duration : 1 h 34 min
Overall bit rate : 2 171 kb/s
Movie name : Kadvi Hawa aka Dark Wind (2017) Hindi - 720p WEB-DL - x264 - AC3 - ESubs -Sun George (Requested)


===================================================================


Video
ID : 1
Format : AVC
Format/Info : Advanced Video Codec
Format profile : [email protected]
Format settings : CABAC / 5 Ref Frames
Format settings, CABAC : Yes
Format settings, RefFrames : 5 frames
Codec ID : V_MPEG4/ISO/AVC
Duration : 1 h 34 min
Bit rate : 2 000 kb/s
Width : 1 280 pixels
Height : 720 pixels
Display aspect ratio : 16:9
Frame rate mode : Constant
Frame rate : 25.000 FPS
Color space : YUV
Chroma subsampling : 4:2:0
Bit depth : 8 bits
Scan type : Progressive
Bits/(Pixel*Frame) : 0.087
Stream size : 1.30 GiB (91%)
Title : Sun George


===================================================================


Audio
ID : 2
Format : AC-3
Format/Info : Audio Coding 3
Commercial name : Dolby Digital
Codec ID : A_AC3
Duration : 1 h 34 min
Bit rate mode : Constant
Bit rate : 192 kb/s
Channel(s) : 2 channels
Channel layout : L R
Sampling rate : 48.0 kHz
Frame rate : 31.250 FPS (1536 SPF)
Bit depth : 16 bits
Compression mode : Lossy
Stream size : 130 MiB (9%)
Title : Sun George
Language : Hindi
Service kind : Complete Main
Default : Yes
Forced : No

Text
ID : 3
Format : UTF-8
Codec ID : S_TEXT/UTF8
Codec ID/Info : UTF-8 Plain Text
Duration : 1 h 26 min
Bit rate : 41 b/s
Count of elements : 878
Stream size : 26.5 KiB (0%)
Title : Sun George
Language : English
Default : Yes
Forced : Yes


















   


Related Torrents




Recent Searches

Home - Browse Torrents - Upload Torrent - Recent Torrents - Login - Register - FAQ

Can't load ExtraTorrent.Network
2006-2018 ExtraTorrent.Network