ExtraTorrent

Login   |   Register   |   Home
Loading...
Loading...
Browse Torrents
| Search Cloud | | | | | FAQ  
» » Banarasi Babu (1997) Hindi - 720p WEB-DL - x264 - AC3 -Sun George (Requested)

Download Banarasi Babu (1997) Hindi - 720p WEB-DL - x264 - AC3 -Sun George (Requested) extratorrent


Download torrent: Download Magnet Banarasi Babu (1997) Hindi - 720p WEB-DL - x264 - AC3 -Sun George (Requested)
Info hash 15A733D37F71C58214F948488CF7719FCD0180BE
Torrent ID14019996
Comments: Sort Read Comments
Category: Movies
Health:
 Seeders: 4 |  Leechers: 1 |  Completed: 272
Torrent language: Hindi Hindi
Total Size: 1.5 GB
Uploader: Sungeorge Trusted Uploader Site Friend Superman Sun
Torrent added: 14-03-2019, 12:50:04
Views: 54



Extratorrent Download Torrent



Banarasi Babu (1997) Hindi - 720p WEB-DL - x264 - AC3 -Sun George (Requested)






https://www.imdb.com/title/tt0118680/











===================================================================


Source : DTOne (Thanks)


General
Format : Matroska
Format version : Version 4
File size : 1.44 GiB
Duration : 1 h 59 min
Overall bit rate : 1 731 kb/s
Movie name : Banarasi Babu (1997) Hindi - 720p WEB-DL - x264 - AC3 -Sun George (Requested)


===================================================================


Video
ID : 1
Format : AVC
Format/Info : Advanced Video Codec
Format profile : [email protected]
Format settings : CABAC / 5 Ref Frames
Format settings, CABAC : Yes
Format settings, RefFrames : 5 frames
Codec ID : V_MPEG4/ISO/AVC
Duration : 1 h 59 min
Bit rate : 1 500 kb/s
Width : 1 280 pixels
Height : 720 pixels
Display aspect ratio : 16:9
Frame rate mode : Constant
Frame rate : 25.000 FPS
Color space : YUV
Chroma subsampling : 4:2:0
Bit depth : 8 bits
Scan type : Progressive
Bits/(Pixel*Frame) : 0.065
Stream size : 1.25 GiB (87%)
Title : Sun George


===================================================================


Audio
ID : 2
Format : AC-3
Format/Info : Audio Coding 3
Commercial name : Dolby Digital
Codec ID : A_AC3
Duration : 1 h 59 min
Bit rate mode : Constant
Bit rate : 224 kb/s
Channel(s) : 2 channels
Channel layout : L R
Sampling rate : 44.1 kHz
Frame rate : 28.711 FPS (1536 SPF)
Bit depth : 16 bits
Compression mode : Lossy
Stream size : 191 MiB (13%)
Title : Sun George
Language : Hindi
Service kind : Complete Main
Default : Yes
Forced : No

















   


Related Torrents
Browse Movies Torrents Related Torrents added recently in our database RSS  
Added  Size  Sort S  Sort L  Sort Health
Download Magnet English  48_Hours_S31E26_WEB_x264-LiGATE_[eztv] in TV, by EZTVag 5 minutes 516.4 MB 85088 21802
Download Magnet English  48_Hours_S31E27_WEB_x264-LiGATE_[eztv] in TV, by EZTVag 5 minutes 515.1 MB 86198 63036
Download Magnet English  The_Resident_S02E18_720p_WEB_x264-TBS[TGx] in TV, by mazemaze16 5 minutes 1.1 GB 72478 3995
Download Magnet English  The_Resident_S02E18_WEB_x264-TBS[TGx] in TV, by mazemaze16 5 minutes 357.4 MB 71373 54106
Download Magnet English  48_Hours_S31E28_WEB_x264-LiGATE_[eztv] in TV, by EZTVag 5 minutes 514.7 MB 13356 21223
Download Magnet English  60_Minutes_S51E23_480p_x264-mSD[TGx] in TV, by mazemaze16 15 minutes 157.2 MB 30411 73803
Download Magnet English  Bob's_Burgers_(2011)_-_S09E18_(1080p_WEB-DL_x265_HEVC_10bit____ in TV, by QxR 15 minutes 177.8 MB 86934 15601
Download Magnet English  Family_Guy_(1999)_-_S17E16_(1080p_WEB-DL_x265_HEVC_10bit_AAC___ in TV, by QxR 15 minutes 178.0 MB 88025 35685
Download Magnet English  The_Simpsons_(1989)_-_S30E18_(1080p_WEB-DL_x265_HEVC_10bit_A___ in TV, by QxR 15 minutes 179.1 MB 98651 67743
Download Magnet English  The_Final_Wish_(2018)_[BluRay]_[720p]_[YTS]_[YIFY] in Movies, by YTSAGx 25 minutes 815.3 MB 10430 92967




Recent Searches

Home - Browse Torrents - Upload Torrent - Recent Torrents - Login - Register - FAQ

Can't load ExtraTorrent.Network
2006-2018 ExtraTorrent.Network