ExtraTorrent

Login   |   Register   |   Home
Loading...
Loading...
Browse Torrents
| Search Cloud | | | | | FAQ  
» » Fantastic Beasts The Crimes Of Grindelwald 2018 EXTENDED 1080p BluRay x264 DTS 5 1 - Hon3yHD

Download Fantastic Beasts The Crimes Of Grindelwald 2018 EXTENDED 1080p BluRay x264 DTS 5 1 - Hon3yHD extratorrent


Download torrent: Download Magnet Fantastic Beasts The Crimes Of Grindelwald 2018 EXTENDED 1080p BluRay x264 DTS 5 1 - Hon3yHD
Info hash 6EA2E9234342A13DE3741B49F2A03FDB1A186226
Torrent ID14020128
Comments: Sort Read Comments
Category: Movies
Health:
 Seeders: 2 |  Leechers: 1 |  Completed: 10
Torrent language: English English
Total Size: 4.4 GB
Uploader: Hon3yHD Trusted Uploader Site Friend Superman Sun
Torrent added: 14-03-2019, 19:15:05
Views: 19



Extratorrent Download Torrent Popular 24 hours Movie Torrents | 1337x
https://1337x.is/popular-movies






Fantastic Beasts The Crimes Of Grindelwald 2018 EXTENDED 1080p BluRay x264 DTS 5.1 - Hon3yHD

Source Remux @ Scene

Format : Matroska
Format version : Version 4 / Version 2
File size : 4.38 GiB
Duration : 2 h 20 min
Overall bit rate : 4 443 kb/s
Movie name : Fantastic.Beasts.The.Crimes.Of.Grindelwald.2018-Hon3yHD
Encoded date : UTC 2019-03-14 17:49:12
Writing application : mkvmerge v32.0.0 ('Astral Progressions') 64-bit
Writing library : libebml v1.3.7 + libmatroska v1.5.0

Video
ID : 1
Format : AVC
Format/Info : Advanced Video Codec
Format profile : [email protected]
Format settings, CABAC : Yes
Format settings, ReFrames : 5 frames
Codec ID : V_MPEG4/ISO/AVC
Duration : 2 h 20 min
Bit rate : 3 671 kb/s
Width : 1 920 pixels
Height : 800 pixels
Display aspect ratio : 2.40:1
Frame rate mode : Constant
Frame rate : 23.976 (24000/1001) FPS
Color space : YUV
Chroma subsampling : 4:2:0
Bit depth : 8 bits
Scan type : Progressive
Bits/(Pixel*Frame) : 0.100
Stream size : 3.62 GiB (83%)
Writing library : x264 core 157 r2935 545de2f
Encoding settings : cabac=1 / ref=5 / deblock=1:-1:-1 / analyse=0x3:0x133 / me=umh / subme=9 / psy=1 / psy_rd=1.00:0.15 / mixed_ref=1 / me_range=24 / chroma_me=1 / trellis=2 / 8x8dct=1 / cqm=0 / deadzone=21,11 / fast_pskip=0 / chroma_qp_offset=-3 / threads=12 / lookahead_threads=1 / sliced_threads=0 / nr=200 / decimate=1 / interlaced=0 / bluray_compat=0 / constrained_intra=0 / bframes=3 / b_pyramid=2 / b_adapt=2 / b_bias=0 / direct=3 / weightb=1 / open_gop=0 / weightp=2 / keyint=250 / keyint_min=23 / scenecut=40 / intra_refresh=0 / rc_lookahead=60 / rc=2pass / mbtree=1 / bitrate=3671 / ratetol=1.0 / qcomp=0.60 / qpmin=0 / qpmax=69 / qpstep=4 / cplxblur=20.0 / qblur=0.5 / ip_ratio=1.40 / aq=1:1.00
Language : English
Default : Yes
Forced : No
Color range : Limited
Color primaries : BT.709
Transfer characteristics : BT.709
Matrix coefficients : BT.709

Audio
ID : 2
Format : DTS
Format/Info : Digital Theater Systems
Mode : 16
Format settings, Endianness : Big
Codec ID : A_DTS
Duration : 2 h 20 min
Bit rate mode : Constant
Bit rate : 768 kb/s
Channel(s) : 6 channels
Channel positions : Front: L C R, Side: L R, LFE
Sampling rate : 48.0 kHz
Frame rate : 93.750 FPS (512 spf)
Bit depth : 24 bits
Compression mode : Lossy
Stream size : 774 MiB (17%)
Language : English
Default : Yes
Forced : No


Subtitle Language : English: German: Italian: Bulgarian : Czech: Danish: Estonian : Finnish : Greek : Hebrew : Hungarian: Lithuanian : Polish : Portuguese
: Romanian: Russian : Slovak: Slovenian : Swedish : Thai : Turkish


Menu
00:00:00.000 : en:Chapter 01
00:07:14.934 : en:Chapter 02
00:22:19.713 : en:Chapter 03
00:34:26.856 : en:Chapter 04
00:47:43.402 : en:Chapter 05
00:57:10.760 : en:Chapter 06
01:05:06.110 : en:Chapter 07
01:18:47.305 : en:Chapter 08
01:27:32.038 : en:Chapter 09
01:41:58.529 : en:Chapter 10
01:50:17.110 : en:Chapter 11
01:58:50.665 : en:Chapter 12
02:07:40.110 : en:Chapter 13












   


Related Torrents




Recent Searches

Home - Browse Torrents - Upload Torrent - Recent Torrents - Login - Register - FAQ

Can't load ExtraTorrent.Network
2006-2018 ExtraTorrent.Network