ExtraTorrent

Login   |   Register   |   Home
Loading...
Loading...
Browse Torrents
| Search Cloud | | | | | FAQ  
» » Cheat S01 1080P RB58

Download Cheat S01 1080P RB58 extratorrent


Download torrent: Download Magnet Cheat S01 1080P RB58
Info hash 3915975FD4B1B1D2CDD471D88C0EC7A18AF1CEAC
Torrent ID14020278
Comments: Sort Read Comments
Category: TV
Health:
 Seeders: 8 |  Leechers: 3 |  Completed: 10
Torrent language: English English
Total Size: 3.9 GB
Uploader: RedBaron58 Trusted Uploader Site Friend Superman Sun
Torrent added: 15-03-2019, 01:55:04
Views: 25



Extratorrent Download Torrent



Cheat S01 2019 1080P x264 mp4

https://www.imdb.com/title/tt9131136/

Thank you for your kind comments and feedback on my other torrents, your feedback is welcome.

About the Series:
Centered around a dangerous relationship between university professor Leah and her student,
Rose. After a series of events take place, things escalate between the two leading to fatal
consequences.

I hope you enjoy.





Technical:

General
Complete name : I:\Cheat S01\Cheat S01E01 1080P x264 RB58.mp4
Format : MPEG-4
Format profile : Base Media
Codec ID : isom
File size : 994 MiB
Duration : 44mn 26s
Overall bit rate mode : Variable
Overall bit rate : 3 126 Kbps
Writing application : VideoReDo (Lavf56.25.101)

Video
ID : 1
Format : AVC
Format/Info : Advanced Video Codec
Format profile : [email protected]
Format settings, CABAC : Yes
Format settings, ReFrames : 3 frames
Codec ID : avc1
Codec ID/Info : Advanced Video Coding
Duration : 44mn 26s
Bit rate mode : Variable
Bit rate : 2 995 Kbps
Maximum bit rate : 19.2 Mbps
Width : 1 920 pixels
Height : 1 080 pixels
Display aspect ratio : 16:9
Frame rate mode : Constant
Frame rate : 25.000 fps
Standard : PAL
Color space : YUV
Chroma subsampling : 4:2:0
Bit depth : 8 bits
Scan type : Interlaced
Scan order : Top Field First
Bits/(Pixel*Frame) : 0.058
Stream size : 952 MiB (96%)
Color range : Limited
Color primaries : BT.709
Transfer characteristics : BT.709
Matrix coefficients : BT.709

Audio
ID : 2
Format : AAC
Format/Info : Advanced Audio Codec
Format profile : LC
Codec ID : 40
Duration : 44mn 26s
Duration_LastFrame : -21ms
Bit rate mode : Variable
Bit rate : 125 Kbps
Maximum bit rate : 128 Kbps
Channel(s) : 2 channels
Channel positions : Front: L R
Sampling rate : 48.0 KHz
Compression mode : Lossy
Stream size : 39.9 MiB (4%)
Language : English





   


Related Torrents
Browse Movies Torrents Related Torrents added recently in our database RSS  
Added  Size  Sort S  Sort L  Sort Health
Download Magnet English  48_Hours_S31E26_WEB_x264-LiGATE_[eztv] in TV, by EZTVag 22 seconds 516.4 MB 72817 45504
Download Magnet English  48_Hours_S31E27_WEB_x264-LiGATE_[eztv] in TV, by EZTVag 22 seconds 515.1 MB 1123 5113
Download Magnet English  The_Resident_S02E18_720p_WEB_x264-TBS[TGx] in TV, by mazemaze16 22 seconds 1.1 GB 83071 85489
Download Magnet English  The_Resident_S02E18_WEB_x264-TBS[TGx] in TV, by mazemaze16 22 seconds 357.4 MB 93398 29060
Download Magnet English  48_Hours_S31E28_WEB_x264-LiGATE_[eztv] in TV, by EZTVag 22 seconds 514.7 MB 91924 61051
Download Magnet English  60_Minutes_S51E23_480p_x264-mSD[TGx] in TV, by mazemaze16 10 minutes 157.2 MB 16902 77939
Download Magnet English  Bob's_Burgers_(2011)_-_S09E18_(1080p_WEB-DL_x265_HEVC_10bit____ in TV, by QxR 10 minutes 177.8 MB 57087 80427
Download Magnet English  Family_Guy_(1999)_-_S17E16_(1080p_WEB-DL_x265_HEVC_10bit_AAC___ in TV, by QxR 10 minutes 178.0 MB 84538 35618
Download Magnet English  The_Simpsons_(1989)_-_S30E18_(1080p_WEB-DL_x265_HEVC_10bit_A___ in TV, by QxR 10 minutes 179.1 MB 94344 33518
Download Magnet English  The_Final_Wish_(2018)_[BluRay]_[720p]_[YTS]_[YIFY] in Movies, by YTSAGx 20 minutes 815.3 MB 10153 88446




Recent Searches

Home - Browse Torrents - Upload Torrent - Recent Torrents - Login - Register - FAQ

Can't load ExtraTorrent.Network
2006-2018 ExtraTorrent.Network