ExtraTorrent

Login   |   Register   |   Home
Browse Torrents
| Search Cloud | | | | | FAQ  
» » Young Sheldon S02E17 (1080p AMZN WEB-DL x265 HEVC 10bit AAC 5 1 Joy) [UTR]

Download Young Sheldon S02E17 (1080p AMZN WEB-DL x265 HEVC 10bit AAC 5 1 Joy) [UTR] extratorrent


Download torrent: Download Magnet Young Sheldon S02E17 (1080p AMZN WEB-DL x265 HEVC 10bit AAC 5 1 Joy) [UTR]
Info hash FA26CA1F3C630C69543946523DBEC2F7EAE30521
Torrent ID14020344
Comments: Sort Read Comments
Category: TV
Health:
 Seeders: 9 |  Leechers: 3 |  Completed: 360
Torrent language: English English
Total Size: 210.1 MB
Uploader: UTRCorp Trusted Uploader Site Friend Superman Sun
Torrent added: 15-03-2019, 04:35:05
Views: 13



Extratorrent Download Torrent Young Sheldon (2017) S02E17 (1080p AMZN WEB …
https://limetorrents.proxyfix.me/Young-Sheldon-(2017)-S02E17...
Young Sheldon S02E07 (1080p) (AMZN WEB-DL …
https://www.ettv.be/torrent/248327/young-sheldon-s02e07-1080p-amzn...
The Orville S02E07 1080p AMZN WEB-DL x265 …
https://sanet.st/blogs/myhdstore/the_orville_s_e_p_amzn_web_dl_x...
Young Sheldon S02E13 (1080p AMZN WEB-DL …
https://1337x.unblocked.pet/torrent/3537989/Young-Sheldon-S02E13...
Young Sheldon S02E04 (1080p AMZN WEB-DL …
https://extratorrent.unblocked.pet/torrent/7281033/Young+Sheldon...
Young Sheldon (2017) S02E17 (1080p AMZN WEB …
https://torrentz2.eu/4d636925a9a3dca5099fe89fe049d47f6cd3ed0b
Young Sheldon (2017) S02E06 (1080p AMZN WEB …
https://ibit.uno/torrent/Young-Sheldon-2017-S02E06-1080p-AMZN-WEB...
Young.Sheldon.2017.S02E02.1080p.AMZN.WEB …
https://m.torrentwal.com/torrent_mid/849529.html
Young Sheldon (2017) S02E15 (1080p AMZN WEB …
https://torrentz2.eu/9aaf25c1b731537bf84d9af45866e66e2eaaa341
Deviant 2017 1080p AMZN WEB-DL 2CH HEVC …
https://megaddl.co/deviant-2017-1080p-amzn-web-dl-2ch-hevc-x265...








Media Information

Code:

General
Format : Matroska
Format version : Version 4 / Version 2
File size : 210 MiB
Duration : 20 min 52 s
Overall bit rate : 1 407 kb/s
Movie name : Young Sheldon S02E17 Albert Einstein and the Story of Another Mary (1080p x265 10bit Joy)
Encoded date : UTC 2019-03-13 22:03:20
Writing application : mkvmerge v31.0.0 ('Dolores In A Shoestand') 64-bit
Writing library : libebml v1.3.6 + libmatroska v1.4.9
Writing frontend : StaxRip v2.0.0.1, Encoded by Joy Bell

Video
ID : 1
Format : HEVC
Format/Info : High Efficiency Video Coding
Format profile : Main [email protected]@Main
Codec ID : V_MPEGH/ISO/HEVC
Duration : 20 min 52 s
Bit rate : 1 200 kb/s
Width : 1 920 pixels
Height : 1 080 pixels
Display aspect ratio : 16:9
Frame rate mode : Constant
Frame rate : 24.000 FPS
Color space : YUV
Chroma subsampling : 4:2:0
Bit depth : 10 bits
Bits/(Pixel*Frame) : 0.024
Stream size : 179 MiB (85%)
Writing library : x265 3.0_Au+7-cb3e172a5f51:[Windows][GCC 8.3.0][64 bit] 10bit
Encoding settings : cpuid=1111039 / frame-threads=3 / numa-pools=12 / wpp / no-pmode / no-pme / no-psnr / ssim / log-level=2 / input-csp=1 / input-res=1920x1080 / interlace=0 / total-frames=30069 / level-idc=0 / high-tier=1 / uhd-bd=0 / ref=4 / no-allow-non-conformance / no-repeat-headers / annexb / no-aud / no-hrd / info / hash=0 / no-temporal-layers / open-gop / min-keyint=24 / keyint=250 / gop-lookahead=0 / bframes=8 / b-adapt=2 / b-pyramid / bframe-bias=40 / rc-lookahead=80 / lookahead-slices=4 / scenecut=40 / radl=0 / no-splice / no-intra-refresh / ctu=64 / min-cu-size=8 / no-rect / no-amp / max-tu-size=32 / tu-inter-depth=1 / tu-intra-depth=1 / limit-tu=0 / rdoq-level=2 / dynamic-rd=0.00 / ssim-rd / signhide / no-tskip / nr-intra=0 / nr-inter=0 / constrained-intra / strong-intra-smoothing / max-merge=3 / limit-refs=3 / limit-modes / me=3 / subme=3 / merange=57 / temporal-mvp / weightp / no-weightb / no-analyze-src-pics / deblock=0:0 / sao / no-sao-non-deblock / rd=4 / early-skip / rskip / no-fast-intra / no-tskip-fast / no-cu-lossless / no-b-intra / splitrd-skip / rdpenalty=0 / psy-rd=2.05 / psy-rdoq=0.95 / no-rd-refine / no-lossless / cbqpoffs=0 / crqpoffs=0 / rc=abr / bitrate=1200 / qcomp=0.60 / qpstep=4 / stats-write=0 / stats-read=2 / cplxblur=20.0 / qblur=0.5 / ipratio=1.40 / pbratio=1.30 / aq-mode=2 / aq-strength=0.80 / cutree / zone-count=0 / no-strict-cbr / qg-size=32 / no-rc-grain / qpmax=69 / qpmin=0 / no-const-vbv / sar=0 / overscan=0 / videoformat=5 / range=0 / colorprim=2 / transfer=2 / colormatrix=1 / chromaloc=0 / display-window=0 / max-cll=0,0 / min-luma=0 / max-luma=1023 / log2-max-poc-lsb=8 / vui-timing-info / vui-hrd-info / slices=1 / no-opt-qp-pps / no-opt-ref-list-length-pps / multi-pass-opt-rps / scenecut-bias=0.05 / no-opt-cu-delta-qp / no-aq-motion / no-hdr / no-hdr-opt / no-dhdr10-opt / no-idr-recovery-sei / analysis-reuse-level=10 / scale-factor=0 / refine-intra=0 / refine-inter=0 / refine-mv=0 / refine-ctu-distortion=0 / limit-sao / ctu-info=0 / no-lowpass-dct / refine-analysis-type=0 / copy-pic=1 / max-ausize-factor=1.0 / no-dynamic-refine / no-single-sei / no-hevc-aq / no-svt / qp-adaptation-range=1.00
Default : Yes
Forced : No
Color range : Limited
Matrix coefficients : BT.709

Audio
ID : 2
Format : AAC
Format/Info : Advanced Audio Codec
Format profile : HE-AAC / LC
Codec ID : A_AAC
Duration : 20 min 52 s
Bit rate : 204 kb/s
Channel(s) : 6 channels
Channel positions : Front: L C R, Side: L R, LFE
Sampling rate : 48.0 kHz / 24.0 kHz
Frame rate : 23.438 FPS (1024 spf)
Compression mode : Lossy
Delay relative to video : 31 ms
Stream size : 30.5 MiB (15%)
Language : English
Default : No
Forced : No

Subtitle
ID : 3
Format : UTF-8
Codec ID : S_TEXT/UTF8
Codec ID/Info : UTF-8 Plain Text
Duration : 20 min 28 s
Bit rate : 88 b/s
Count of elements : 470
Stream size : 13.2 KiB (0%)
Title : SDH
Language : English
Default : No
Forced : No

Menu
00:00:00.000 : en:Scene 1
00:01:28.000 : en:Title Sequence
00:01:45.000 : en:Scene 3
00:08:03.000 : en:Scene 4
00:12:24.000 : en:Scene 5
00:20:24.000 : en:End Credits



Source Information

Code:

Release: Young.Sheldon.S02E17.Albert.Einstein.and.the.Story.of.Another.Mary.1080p.AMZN.WEB-DL.DDP5.1.H.264-NTb.mkv (1.42 GBs)



Code:


Note From UTR
We have no issue with individuals posting or re-uploading our torrents on a platform we aren't on. However, if this is something you'd like to do, please do so in a 'as-is' format. We ask that you do not create a new torrent, include all descriptions you see above including the UTR logo, tags, notes and screenshots. If you'd like to become a permanent poster on a website we don't post to, feel free to get in contact with a UniTeam member.

If possible please donate: BTC 1QA5fum5AyXvWzdVCkQzUNvw3Ef15fHRaR









   


Related Torrents




Recent Searches

Home - Browse Torrents - Upload Torrent - Recent Torrents - Login - Register - FAQ

Can't load ExtraTorrent.Network
2006-2018 ExtraTorrent.Network