ExtraTorrent

Login   |   Register   |   Home
Browse Torrents
| Search Cloud | | | | | FAQ  
» » Bombairiya 2019 Untouched WebDL Hindi 1080p AVC DD 5 1 ESub - mkvCinemas [Telly]

Download Bombairiya 2019 Untouched WebDL Hindi 1080p AVC DD 5 1 ESub - mkvCinemas [Telly] extratorrent


Download torrent: Download Magnet Bombairiya 2019 Untouched WebDL Hindi 1080p AVC DD 5 1 ESub - mkvCinemas [Telly]
Info hash 84C873D3B9E70EE3A94706BF4F79CF2D2535D5E2
Torrent ID14020346
Comments: Sort Read Comments
Category: Movies
Health:
 Seeders: 19 |  Leechers: 2 |  Completed: 1072
Torrent language: Hindi Hindi
Total Size: 2.2 GB
Uploader: mkvCinemas Trusted Uploader Site Friend Superman Sun
Torrent added: 15-03-2019, 04:40:04
Views: 74



Extratorrent Download Torrent









********************************

Bombairiya 2019 Untouched WebDL Hindi 1080p AVC DDP 5.1 ESub - mkvCinemas [Telly]

********************************

Mediainfo:-
Format                      : Matroska
Format version              : Version 4
File size                   : 2.16 GiB
Duration                    : 1 h 48 min
Overall bit rate mode       : Variable
Overall bit rate            : 2 861 kb/s
Encoded date                : UTC 2019-03-15 04:25:59 / UTC 2019-03-06 22:34:57
Writing application         : mkvmerge v11.0.0 ('Alive') 64bit
Writing library             : libebml v1.3.4 + libmatroska v1.4.5 / Lavf58.0.0

Video
ID                          : 1
Format                      : AVC
Format/Info                 : Advanced Video Codec
Format profile              : [email protected]
Format settings             : CABAC / 4 Ref Frames
Format settings, CABAC      : Yes
Format settings, ReFrames   : 4 frames
Codec ID                    : V_MPEG4/ISO/AVC
Duration                    : 1 h 48 min
Bit rate mode               : Variable
Bit rate                    : 2 420 kb/s
Maximum bit rate            : 20.0 Mb/s
Width                       : 1 920 pixels
Height                      : 1 080 pixels
Display aspect ratio        : 16:9
Frame rate mode             : Constant
Frame rate                  : 24.000 FPS
Color space                 : YUV
Chroma subsampling          : 4:2:0
Bit depth                   : 8 bits
Scan type                   : Progressive
Bits/(Pixel*Frame)          : 0.049
Stream size                 : 1.83 GiB (85%)
Writing library             : x264 core 148 r2715 7e75228
Encoding settings           : cabac=1 / ref=4 / deblock=1:0:0 / analyse=0x3:0x111 / me=umh / subme=10 / psy=1 / psy_rd=1.00:0.00 / mixed_ref=1 / me_range=120 / chroma_me=1 / trellis=2 / 8x8dct=1 / cqm=0 / deadzone=21,11 / fast_pskip=1 / chroma_qp_offset=-2 / threads=8 / lookahead_threads=2 / sliced_threads=0 / nr=0 / decimate=1 / interlaced=0 / bluray_compat=0 / stitchable=1 / constrained_intra=0 / bframes=16 / b_pyramid=2 / b_adapt=2 / b_bias=0 / direct=3 / weightb=1 / open_gop=0 / weightp=2 / keyint=240 / keyint_min=121 / scenecut=0 / intra_refresh=0 / rc_lookahead=240 / rc=crf / mbtree=1 / crf=20.0 / qcomp=0.50 / qpmin=6 / qpmax=51 / qpstep=4 / vbv_maxrate=20000 / vbv_bufsize=25000 / crf_max=0.0 / nal_hrd=vbr / filler=0 / ip_ratio=1.40 / aq=1:0.80
Default                     : Yes
Forced                      : No
Statistics Tags Issue       : mkvmerge v11.0.0 ('Alive') 64bit 2019-03-15 04:25:59 / mkvmerge v11.0.0 ('Alive') 64bit 2019-03-15 04:25:59 / UTC 2019-03-06 22:34:57
FromStats_BitRate           : 2475478
FromStats_Duration          : 01:48:07.334000000
FromStats_FrameCount        : 155696
FromStats_StreamSize        : 2007406851

Audio
ID                          : 2
Format                      : AC-3
Format/Info                 : Audio Coding 3
Commercial name             : Dolby Digital
Codec ID                    : A_AC3
Duration                    : 1 h 48 min
Bit rate mode               : Constant
Bit rate                    : 384 kb/s
Channel(s)                  : 6 channels
Channel layout              : L R C LFE Ls Rs
Sampling rate               : 48.0 kHz
Frame rate                  : 31.250 FPS (1536 SPF)
Bit depth                   : 16 bits
Compression mode            : Lossy
Stream size                 : 297 MiB (13%)
Service kind                : Complete Main
Default                     : Yes
Forced                      : No
Encoded date                : UTC 2019-03-06 22:34:57
Statistics Tags Issue       : mkvmerge v11.0.0 ('Alive') 64bit 2019-03-15 04:25:59 / mkvmerge v11.0.0 ('Alive') 64bit 2019-03-15 04:25:59 / UTC 2019-03-06 22:34:57
FromStats_BitRate           : 384000
FromStats_Duration          : 01:48:07.328000000
FromStats_FrameCount        : 202729
FromStats_StreamSize        : 311391744

Text
ID                          : 3
Format                      : UTF-8
Codec ID                    : S_TEXT/UTF8
Codec ID/Info               : UTF-8 Plain Text
Title                       : English
Language                    : English
Default                     : Yes
Forced                      : Yes
Statistics Tags Issue       : mkvmerge v11.0.0 ('Alive') 64bit 2019-03-15 04:25:59 / mkvmerge v11.0.0 ('Alive') 64bit 2019-03-15 04:25:59 / UTC 2019-03-06 22:34:57
FromStats_BitRate           : 76
FromStats_Duration          : 01:47:23.250000000
FromStats_FrameCount        : 1356
FromStats_StreamSize        : 62013


********************************

Wherever you Share our Stuffs, Give Proper Credit to "mkvCinemas @Team Telly"
We Keep All Torrents. In case of re-seed, please pm.


********************************







********************************



********************************






   


Related Torrents




Recent Searches

Home - Browse Torrents - Upload Torrent - Recent Torrents - Login - Register - FAQ

Can't load ExtraTorrent.Network
2006-2018 ExtraTorrent.Network