ExtraTorrent

Login   |   Register   |   Home
Loading...
Loading...
Browse Torrents
| Search Cloud | | | | | FAQ  
» » Fantastic Beasts The Crimes Of Grindelwald 2018 1080p x265 BDrip TrueHD Atmos 7 1 D0ct0rLew[SEV]

Download Fantastic Beasts The Crimes Of Grindelwald 2018 1080p x265 BDrip TrueHD Atmos 7 1 D0ct0rLew[SEV] extratorrent


Download torrent: Download Magnet Fantastic Beasts The Crimes Of Grindelwald 2018 1080p x265 BDrip TrueHD Atmos 7 1 D0ct0rLew[SEV]
Info hash 3AB1CD8583004302BF51EACCC4AAD0455382C2FB
Torrent ID14020414
Comments: Sort Read Comments
Category: Movies
Health:
 Seeders: 9 |  Leechers: 3 |  Completed: 301
Torrent language: English English
Total Size: 11.4 GB
Uploader: D0ct0rLew Trusted Uploader Site Friend Superman Sun
Torrent added: 15-03-2019, 06:50:04
Views: 13



Extratorrent Download Torrent





Screenshots


Source


Encode


Media Information



Unique ID : 26010276740856960922031414960035770948 (0x139165A74707D447058965FB0BB8B244)
Complete name : Fantastic Beasts The Crimes Of Grindelwald 2018 1080p x265 BDrip TrueHD Atmos 7.1 D0ct0rLew[SEV].mkv
Format : Matroska
Format version : Version 4
File size : 11.4 GiB
Duration : 2 h 13 min
Overall bit rate mode : Variable
Overall bit rate : 12.2 Mb/s
Movie name : Fantastic.Beasts.The.Crimes.Of.Grindelwald.2018.1080p.BluRay.REMUX.AVC.DTS-HD.MA.TrueHD.7.1.Atmos-FGT
Encoded date : UTC 2019-03-14 04:48:31
Writing application : mkvmerge v29.0.0 ('Like It Or Not') 64-bit
Writing library : libebml v1.3.6 + libmatroska v1.4.9

Video
ID : 2
Format : HEVC
Format/Info : High Efficiency Video Coding
Format profile : Main [email protected]@Main
Codec ID : V_MPEGH/ISO/HEVC
Duration : 2 h 13 min
Bit rate : 7 470 kb/s
Width : 1 920 pixels
Height : 1 080 pixels
Display aspect ratio : 16:9
Frame rate mode : Constant
Frame rate : 23.976 (24000/1001) FPS
Color space : YUV
Chroma subsampling : 4:2:0
Bit depth : 10 bits
Bits/(Pixel*Frame) : 0.150
Stream size : 6.98 GiB (61%)
Writing library : x265 3.0_RC+4-8aebc58efe5c:[Windows][MSVC 1920][64 bit] 10bit
Encoding settings : cpuid=1111039 / frame-threads=3 / numa-pools=8 / wpp / no-pmode / no-pme / no-psnr / no-ssim / log-level=2 / input-csp=1 / input-res=1920x1080 / interlace=0 / total-frames=192528 / level-idc=0 / high-tier=1 / uhd-bd=0 / ref=4 / no-allow-non-conformance / no-repeat-headers / annexb / no-aud / no-hrd / info / hash=0 / no-temporal-layers / open-gop / min-keyint=23 / keyint=250 / gop-lookahead=0 / bframes=8 / b-adapt=2 / b-pyramid / bframe-bias=0 / rc-lookahead=90 / lookahead-slices=0 / scenecut=40 / radl=0 / no-splice / no-intra-refresh / ctu=64 / min-cu-size=8 / no-rect / no-amp / max-tu-size=32 / tu-inter-depth=3 / tu-intra-depth=3 / limit-tu=4 / rdoq-level=2 / dynamic-rd=0.00 / no-ssim-rd / signhide / no-tskip / nr-intra=0 / nr-inter=0 / no-constrained-intra / no-strong-intra-smoothing / max-merge=4 / limit-refs=1 / limit-modes / me=3 / subme=7 / merange=92 / temporal-mvp / weightp / weightb / no-analyze-src-pics / deblock=0:0 / sao / no-sao-non-deblock / rd=6 / no-early-skip / rskip / no-fast-intra / no-tskip-fast / no-cu-lossless / b-intra / no-splitrd-skip / rdpenalty=0 / psy-rd=1.10 / psy-rdoq=1.00 / no-rd-refine / no-lossless / cbqpoffs=0 / crqpoffs=0 / rc=crf / crf=18.0 / qcomp=0.60 / qpstep=4 / stats-write=0 / stats-read=0 / ipratio=1.40 / pbratio=1.30 / aq-mode=3 / aq-strength=1.10 / cutree / zone-count=0 / no-strict-cbr / qg-size=32 / no-rc-grain / qpmax=69 / qpmin=0 / no-const-vbv / sar=0 / overscan=0 / videoformat=5 / range=0 / colorprim=2 / transfer=2 / colormatrix=2 / chromaloc=0 / display-window=0 / max-cll=0,0 / min-luma=0 / max-luma=1023 / log2-max-poc-lsb=8 / vui-timing-info / vui-hrd-info / slices=1 / no-opt-qp-pps / no-opt-ref-list-length-pps / no-multi-pass-opt-rps / scenecut-bias=0.05 / no-opt-cu-delta-qp / no-aq-motion / no-hdr / no-hdr-opt / no-dhdr10-opt / no-idr-recovery-sei / analysis-reuse-level=5 / scale-factor=0 / refine-intra=0 / refine-inter=0 / refine-mv=0 / refine-ctu-distortion=0 / no-limit-sao / ctu-info=0 / no-lowpass-dct / refine-analysis-type=0 / copy-pic=1 / max-ausize-factor=1.0 / no-dynamic-refine / no-single-sei / no-hevc-aq / qp-adaptation-range=1.00
Default : Yes
Forced : No

Audio #1
ID : 3
Format : MLP FBA 16-ch
Format/Info : Meridian Lossless Packing FBA with 16-channel presentation
Commercial name : Dolby TrueHD with Dolby Atmos
Codec ID : A_TRUEHD
Duration : 2 h 13 min
Bit rate mode : Variable
Bit rate : 3 457 kb/s
Maximum bit rate : 5 013 kb/s
Channel(s) : 8 channels
Channel layout : L R C LFE Ls Rs Lb Rb
Sampling rate : 48.0 kHz
Frame rate : 1 200.000 FPS (40 SPF)
Compression mode : Lossless
Stream size : 3.23 GiB (28%)
Title : Fantastic.Beasts.The.Crimes.Of.Grindelwald.2018.1080p.BluRay.REMUX.AVC.DTS-HD.MA.TrueHD.7.1.Atmos-FGT
Language : English
Default : Yes
Forced : No
Number of dynamic objects : 15
Bed channel count : 1 channel
Bed channel configuration : LFE

Audio #2
ID : 4
Format : AAC LC
Format/Info : Advanced Audio Codec Low Complexity
Codec ID : A_AAC-2
Duration : 2 h 13 min
Bit rate : 384 kb/s
Channel(s) : 6 channels
Channel layout : C L R Ls Rs LFE
Sampling rate : 48.0 kHz
Frame rate : 46.875 FPS (1024 SPF)
Compression mode : Lossy
Delay relative to video : 9 ms
Stream size : 368 MiB (3%)
Language : French
Default : No
Forced : No

Audio #3
ID : 5
Format : AAC LC
Format/Info : Advanced Audio Codec Low Complexity
Codec ID : A_AAC-2
Duration : 2 h 13 min
Bit rate : 384 kb/s
Channel(s) : 6 channels
Channel layout : C L R Ls Rs LFE
Sampling rate : 48.0 kHz
Frame rate : 46.875 FPS (1024 SPF)
Compression mode : Lossy
Delay relative to video : 9 ms
Stream size : 368 MiB (3%)
Language : Portuguese
Default : No
Forced : No

Audio #4
ID : 6
Format : AAC LC
Format/Info : Advanced Audio Codec Low Complexity
Codec ID : A_AAC-2
Duration : 2 h 13 min
Bit rate : 384 kb/s
Channel(s) : 6 channels
Channel layout : C L R Ls Rs LFE
Sampling rate : 48.0 kHz
Frame rate : 46.875 FPS (1024 SPF)
Compression mode : Lossy
Delay relative to video : 9 ms
Stream size : 368 MiB (3%)
Language : Spanish
Default : No
Forced : No

Text #1
ID : 1
Format : UTF-8
Codec ID : S_TEXT/UTF8
Codec ID/Info : UTF-8 Plain Text
Duration : 2 h 4 min
Bit rate : 47 b/s
Count of elements : 1488
Stream size : 43.3 KiB (0%)
Language : English
Default : Yes
Forced : No

Text #2
ID : 7
Format : VobSub
Muxing mode : zlib
Codec ID : S_VOBSUB
Codec ID/Info : Picture based subtitle format used on DVDs
Duration : 2 h 12 min
Bit rate : 27 b/s
Count of elements : 11
Stream size : 27.0 KiB (0%)
Language : French
Default : No
Forced : No

Text #3
ID : 8
Format : VobSub
Muxing mode : zlib
Codec ID : S_VOBSUB
Codec ID/Info : Picture based subtitle format used on DVDs
Duration : 1 h 58 min
Bit rate : 12 b/s
Count of elements : 6
Stream size : 11.1 KiB (0%)
Language : Portuguese
Default : No
Forced : No

Text #4
ID : 9
Format : VobSub
Muxing mode : zlib
Codec ID : S_VOBSUB
Codec ID/Info : Picture based subtitle format used on DVDs
Duration : 1 h 46 min
Bit rate : 8 b/s
Count of elements : 4
Stream size : 6.91 KiB (0%)
Language : Spanish
Default : No
Forced : No

Text #5
ID : 10
Format : VobSub
Muxing mode : zlib
Codec ID : S_VOBSUB
Codec ID/Info : Picture based subtitle format used on DVDs
Duration : 2 h 12 min
Bit rate : 2 482 b/s
Count of elements : 1254
Stream size : 2.36 MiB (0%)
Language : Portuguese
Default : No
Forced : No

Text #6
ID : 11
Format : VobSub
Muxing mode : zlib
Codec ID : S_VOBSUB
Codec ID/Info : Picture based subtitle format used on DVDs
Duration : 2 h 12 min
Bit rate : 2 314 b/s
Count of elements : 1252
Stream size : 2.20 MiB (0%)
Language : French
Default : No
Forced : No

Text #7
ID : 12
Format : VobSub
Muxing mode : zlib
Codec ID : S_VOBSUB
Codec ID/Info : Picture based subtitle format used on DVDs
Duration : 2 h 12 min
Bit rate : 2 518 b/s
Count of elements : 1248
Stream size : 2.39 MiB (0%)
Language : Spanish
Default : No
Forced : No

Menu
00:00:00.000 : en:Chapter 01
00:07:14.934 : en:Chapter 02
00:21:39.381 : en:Chapter 03
00:32:56.849 : en:Chapter 04
00:41:40.956 : en:Chapter 05
00:50:26.189 : en:Chapter 06
00:58:21.539 : en:Chapter 07
01:12:02.735 : en:Chapter 08
01:20:23.276 : en:Chapter 09
01:34:49.767 : en:Chapter 10
01:43:08.348 : en:Chapter 11
01:51:41.903 : en:Chapter 12
02:00:32.016 : en:Chapter 13

Source Media Information



Unique ID : 58410466984810356625697977296305245682 (0x2BF1725DC2A3D48AC32BA8741333CDF2)
Complete name : Fantastic.Beasts.The.Crimes.Of.Grindelwald.2018.1080p.BluRay.REMUX.AVC.DTS-HD.MA.TrueHD.7.1.Atmos-FGT.mkv
Format : Matroska
Format version : Version 4
File size : 29.2 GiB
Duration : 2 h 13 min
Overall bit rate mode : Variable
Overall bit rate : 31.3 Mb/s
Movie name : Fantastic.Beasts.The.Crimes.Of.Grindelwald.2018.1080p.BluRay.REMUX.AVC.DTS-HD.MA.TrueHD.7.1.Atmos-FGT
Encoded date : UTC 2019-03-01 08:23:02
Writing application : mkvmerge v31.0.0 ('Dolores In A Shoestand') 64-bit
Writing library : libebml v1.3.6 + libmatroska v1.4.9
Cover : Yes
Attachments : cover_land.jpg / small_cover.jpg / small_cover_land.jpg / cover.jpg

Video
ID : 1
Format : AVC
Format/Info : Advanced Video Codec
Format profile : [email protected]
Format settings : CABAC / 2 Ref Frames
Format settings, CABAC : Yes
Format settings, RefFrames : 2 frames
Format settings, GOP : M=1, N=10
Codec ID : V_MPEG4/ISO/AVC
Duration : 2 h 13 min
Bit rate mode : Variable
Bit rate : 21.9 Mb/s
Width : 1 920 pixels
Height : 1 080 pixels
Display aspect ratio : 16:9
Frame rate mode : Constant
Frame rate : 23.976 (24000/1001) FPS
Color space : YUV
Chroma subsampling : 4:2:0
Bit depth : 8 bits
Scan type : Progressive
Bits/(Pixel*Frame) : 0.441
Stream size : 20.5 GiB (70%)
Title : Fantastic.Beasts.The.Crimes.Of.Grindelwald.2018.1080p.BluRay.REMUX.AVC.DTS-HD.MA.TrueHD.7.1.Atmos-FGT
Language : English
Default : No
Forced : No

Audio #1
ID : 2
Format : MLP FBA 16-ch
Format/Info : Meridian Lossless Packing FBA with 16-channel presentation
Commercial name : Dolby TrueHD with Dolby Atmos
Codec ID : A_TRUEHD
Duration : 2 h 13 min
Bit rate mode : Variable
Bit rate : 3 457 kb/s
Maximum bit rate : 5 013 kb/s
Channel(s) : 8 channels
Channel layout : L R C LFE Ls Rs Lb Rb
Sampling rate : 48.0 kHz
Frame rate : 1 200.000 FPS (40 SPF)
Compression mode : Lossless
Stream size : 3.23 GiB (11%)
Title : Fantastic.Beasts.The.Crimes.Of.Grindelwald.2018.1080p.BluRay.REMUX.AVC.DTS-HD.MA.TrueHD.7.1.Atmos-FGT
Language : English
Default : Yes
Forced : No
Number of dynamic objects : 15
Bed channel count : 1 channel
Bed channel configuration : LFE

Audio #2
ID : 3
Format : DTS XLL
Format/Info : Digital Theater Systems
Commercial name : DTS-HD Master Audio
Codec ID : A_DTS
Duration : 2 h 13 min
Bit rate mode : Variable
Bit rate : 3 538 kb/s
Channel(s) : 8 channels
Channel layout : C L R LFE Lb Rb Lss Rss
Sampling rate : 48.0 kHz
Frame rate : 93.750 FPS (512 SPF)
Bit depth : 24 bits
Compression mode : Lossless
Stream size : 3.31 GiB (11%)
Title : Fantastic.Beasts.The.Crimes.Of.Grindelwald.2018.1080p.BluRay.REMUX.AVC.DTS-HD.MA.TrueHD.7.1.Atmos-FGT
Language : English
Default : No
Forced : No

Audio #3
ID : 4
Format : AC-3
Format/Info : Audio Coding 3
Commercial name : Dolby Digital
Codec ID : A_AC3
Duration : 2 h 13 min
Bit rate mode : Constant
Bit rate : 448 kb/s
Channel(s) : 6 channels
Channel layout : L R C LFE Ls Rs
Sampling rate : 48.0 kHz
Frame rate : 31.250 FPS (1536 SPF)
Bit depth : 16 bits
Compression mode : Lossy
Stream size : 429 MiB (1%)
Title : Fantastic.Beasts.The.Crimes.Of.Grindelwald.2018.1080p.BluRay.REMUX.AVC.DTS-HD.MA.TrueHD.7.1.Atmos-FGT
Language : English
Service kind : Complete Main
Default : No
Forced : No

Audio #4
ID : 5
Format : AC-3
Format/Info : Audio Coding 3
Commercial name : Dolby Digital
Codec ID : A_AC3
Duration : 2 h 13 min
Bit rate mode : Constant
Bit rate : 448 kb/s
Channel(s) : 6 channels
Channel layout : L R C LFE Ls Rs
Sampling rate : 48.0 kHz
Frame rate : 31.250 FPS (1536 SPF)
Bit depth : 16 bits
Compression mode : Lossy
Stream size : 429 MiB (1%)
Title : Fantastic.Beasts.The.Crimes.Of.Grindelwald.2018.1080p.BluRay.REMUX.AVC.DTS-HD.MA.TrueHD.7.1.Atmos-FGT
Language : Portuguese
Service kind : Complete Main
Default : No
Forced : No

Audio #5
ID : 6
Format : AC-3
Format/Info : Audio Coding 3
Commercial name : Dolby Digital
Codec ID : A_AC3
Duration : 2 h 13 min
Bit rate mode : Constant
Bit rate : 448 kb/s
Channel(s) : 6 channels
Channel layout : L R C LFE Ls Rs
Sampling rate : 48.0 kHz
Frame rate : 31.250 FPS (1536 SPF)
Bit depth : 16 bits
Compression mode : Lossy
Stream size : 429 MiB (1%)
Title : Fantastic.Beasts.The.Crimes.Of.Grindelwald.2018.1080p.BluRay.REMUX.AVC.DTS-HD.MA.TrueHD.7.1.Atmos-FGT
Language : English
Service kind : Complete Main
Default : No
Forced : No

Audio #6
ID : 7
Format : AC-3
Format/Info : Audio Coding 3
Commercial name : Dolby Digital
Codec ID : A_AC3
Duration : 2 h 13 min
Bit rate mode : Constant
Bit rate : 448 kb/s
Channel(s) : 6 channels
Channel layout : L R C LFE Ls Rs
Sampling rate : 48.0 kHz
Frame rate : 31.250 FPS (1536 SPF)
Bit depth : 16 bits
Compression mode : Lossy
Stream size : 429 MiB (1%)
Title : Fantastic.Beasts.The.Crimes.Of.Grindelwald.2018.1080p.BluRay.REMUX.AVC.DTS-HD.MA.TrueHD.7.1.Atmos-FGT
Language : Spanish
Service kind : Complete Main
Default : No
Forced : No

Audio #7
ID : 8
Format : AC-3
Format/Info : Audio Coding 3
Commercial name : Dolby Digital
Codec ID : A_AC3
Duration : 2 h 13 min
Bit rate mode : Constant
Bit rate : 448 kb/s
Channel(s) : 6 channels
Channel layout : L R C LFE Ls Rs
Sampling rate : 48.0 kHz
Frame rate : 31.250 FPS (1536 SPF)
Bit depth : 16 bits
Compression mode : Lossy
Stream size : 429 MiB (1%)
Title : Fantastic.Beasts.The.Crimes.Of.Grindelwald.2018.1080p.BluRay.REMUX.AVC.DTS-HD.MA.TrueHD.7.1.Atmos-FGT
Language : French
Service kind : Complete Main
Default : No
Forced : No

Text #1
ID : 9
Format : UTF-8
Codec ID : S_TEXT/UTF8
Codec ID/Info : UTF-8 Plain Text
Duration : 2 h 12 min
Bit rate : 38 b/s
Count of elements : 1266
Stream size : 37.0 KiB (0%)
Title : English-SRT
Language : English
Default : Yes
Forced : No

Text #2
ID : 10
Format : UTF-8
Codec ID : S_TEXT/UTF8
Codec ID/Info : UTF-8 Plain Text
Duration : 2 h 13 min
Bit rate : 43 b/s
Count of elements : 1506
Stream size : 42.7 KiB (0%)
Title : English-SDH-SRT
Language : English
Default : No
Forced : No

Text #3
ID : 11
Format : PGS
Muxing mode : zlib
Codec ID : S_HDMV/PGS
Codec ID/Info : Picture based subtitle format used on BDs/HD-DVDs
Duration : 2 h 13 min
Bit rate : 27.8 kb/s
Count of elements : 3012
Stream size : 26.6 MiB (0%)
Title : English-PGS
Language : English
Default : No
Forced : No

Text #4
ID : 12
Format : PGS
Muxing mode : zlib
Codec ID : S_HDMV/PGS
Codec ID/Info : Picture based subtitle format used on BDs/HD-DVDs
Duration : 2 h 12 min
Bit rate : 21.0 kb/s
Count of elements : 2504
Stream size : 20.0 MiB (0%)
Title : French-PGS
Language : French
Default : No
Forced : No

Text #5
ID : 13
Format : PGS
Muxing mode : zlib
Codec ID : S_HDMV/PGS
Codec ID/Info : Picture based subtitle format used on BDs/HD-DVDs
Duration : 2 h 12 min
Bit rate : 22.9 kb/s
Count of elements : 2496
Stream size : 21.8 MiB (0%)
Title : Spanish-PGS
Language : Spanish
Default : No
Forced : No

Text #6
ID : 14
Format : PGS
Muxing mode : zlib
Codec ID : S_HDMV/PGS
Codec ID/Info : Picture based subtitle format used on BDs/HD-DVDs
Duration : 1 h 46 min
Bit rate : 76 b/s
Count of elements : 8
Stream size : 59.4 KiB (0%)
Title : Spanish-FORCED-PGS
Language : Spanish
Default : No
Forced : No

Text #7
ID : 15
Format : PGS
Muxing mode : zlib
Codec ID : S_HDMV/PGS
Codec ID/Info : Picture based subtitle format used on BDs/HD-DVDs
Duration : 2 h 12 min
Bit rate : 22.6 kb/s
Count of elements : 2508
Stream size : 21.5 MiB (0%)
Title : Portuguese-PGS
Language : Portuguese
Default : No
Forced : No

Text #8
ID : 16
Format : PGS
Muxing mode : zlib
Codec ID : S_HDMV/PGS
Codec ID/Info : Picture based subtitle format used on BDs/HD-DVDs
Duration : 1 h 58 min
Bit rate : 110 b/s
Count of elements : 12
Stream size : 96.6 KiB (0%)
Title : Portuguese-FORCED-PGS
Language : Portuguese
Default : No
Forced : No

Text #9
ID : 17
Format : PGS
Muxing mode : zlib
Codec ID : S_HDMV/PGS
Codec ID/Info : Picture based subtitle format used on BDs/HD-DVDs
Duration : 2 h 12 min
Bit rate : 231 b/s
Count of elements : 22
Stream size : 226 KiB (0%)
Title : French-FORCED-PGS
Language : French
Default : No
Forced : No

Menu
00:00:00.000 : en:Chapter 01
00:07:14.934 : en:Chapter 02
00:21:39.381 : en:Chapter 03
00:32:56.849 : en:Chapter 04
00:41:40.956 : en:Chapter 05
00:50:26.189 : en:Chapter 06
00:58:21.539 : en:Chapter 07
01:12:02.735 : en:Chapter 08
01:20:23.276 : en:Chapter 09
01:34:49.767 : en:Chapter 10
01:43:08.348 : en:Chapter 11
01:51:41.903 : en:Chapter 12
02:00:32.016 : en:Chapter 13

We have no issue with individuals posting or re-uploading our torrents on a platform we aren't on. However, if this is something you'd like to do, please do so in a 'as-is' format. We ask that you do not create a new torrent, include all descriptions you see above including the SEV logo, tags, notes and screenshots. If you'd like to become a permanent poster on a website we don't post to, feel free to get in contact with a Sublime Encoded Video member.



We are recruiting/training new members for SEV & seedbox providers as well as people to help out with subtitles.
As you already know, we deliver quality, so you know the standard.
If you're interested, feel free to contact any of the team members.





   


Related Torrents
Browse Movies Torrents Related Torrents added recently in our database RSS  
Added  Size  Sort S  Sort L  Sort Health
Download Magnet English  The_Neighborhood_S01E18_720p_HDTV_x264-AVS[TGx] in TV, by mazemaze16 6 minutes 714.8 MB 5265 3869
Download Magnet English  Dispatches_2019_03_25_New_Landlords_From_Hell_480p_x264-mSD____ in TV, by EZTVag 6 minutes 90.3 MB 68252 79128
Download Magnet English  The_Neighborhood_S01E18_HDTV_x264-SVA[TGx] in TV, by mazemaze16 6 minutes 205.7 MB 3038 81263
Download Magnet English  Love_To_The_Rescue_2019_HDTV_x264-W4F in Movies, by bone111 6 minutes 553.8 MB 68895 70926
Download Magnet English  The_Neighborhood_S01E18_720p_HDTV_x264-AVS_[eztv] in TV, by EZTVag 6 minutes 708.6 MB 15816 46834
Download Magnet English  The_Twisted_Son_2019_HDTV_x264(LifeTime)_525MB in Movies, by bone111 6 minutes 526.9 MB 93328 2818
Download Magnet English  Slutever_2018_S02E07_480p_x264-mSD_[eztv] in TV, by EZTVag 6 minutes 80.1 MB 11148 14502
Download Magnet English  The_Resident_S02E18_480p_x264-mSD_[eztv] in TV, by EZTVag 16 minutes 156.2 MB 98680 91109
Download Magnet English  Dispatches_2019_03_25_New_Landlords_From_Hell_720p_HDTV_x264___ in TV, by EZTVag 16 minutes 437.7 MB 46472 46897
Download Magnet English  The_Resident_S02E18_XviD-AFG[TGx] in TV, by mazemaze16 16 minutes 370.0 MB 86752 25248




Recent Searches

Home - Browse Torrents - Upload Torrent - Recent Torrents - Login - Register - FAQ

Can't load ExtraTorrent.Network
2006-2018 ExtraTorrent.Network