ExtraTorrent

Login   |   Register   |   Home
Loading...
Loading...
Browse Torrents
| Search Cloud | | | | | FAQ  
» » Dog Soldiers 2002 1080p BDRip x264 DTS-HD-iCMAL

Download Dog Soldiers 2002 1080p BDRip x264 DTS-HD-iCMAL extratorrent


Download torrent: Download Magnet Dog Soldiers 2002 1080p BDRip x264 DTS-HD-iCMAL
Info hash 558BD1D061048BF0F36BD0D36B30C9FDAC05A34F
Torrent ID14020480
Comments: Sort Read Comments
Category: Movies
Health:
 Seeders: 2 |  Leechers: 2 |  Completed: 59
Torrent language: English English
Total Size: 5.9 GB
Uploader: iCMAL Trusted Uploader Site Friend Superman Sun
Torrent added: 15-03-2019, 09:30:07
Views: 16



Extratorrent Download Torrent

Dog Soldiers 2002 1080p BDRip x264 DTS-HD-iCMAL A group of soldiers dispatched to the Scottish Highlands on special training maneuvers face their biggest fears after they run into Captain Ryan: the only survivor of a Special Ops team that was literally torn to pieces. Ryan refuses to disclose his mission even though whoever attacked his men might be hungry for seconds. Help arrives in the form of local girl who shelters them in a deserted farmhouse deep in the forest…but when they realize that they are surrounded by a pack of blood-lusting werewolves, it’s apparent their nightmare has just begun! From Neil Marshall, the director of The Decent, Doomsday, Centurion and episodes of Game Of Thrones, comes this terrifying thriller starring Kevin McKidd (Rome, Hannibal Rising), Sean Pertwee (Gotham, Event Horizon), Emma Cleasby (Doomsday) and Liam Cunningham (Game Of Thrones, Clash Of The Titans). Quote:General Unique ID : 238743035840284073518355381890170175950 (0xB39C3C75E40F9EC4B92C9048072B41CE) Complete name : C:\Users\Administrator\Downloads\Dog Soldiers 2002 1080p BDRip x264 DTS-HD-iCMAL.mkv Format : Matroska Format version : Version 2 File size : 5.90 GiB Duration : 1 h 45 min Overall bit rate mode : Variable Overall bit rate : 8 049 kb/s Encoded date : UTC 2019-03-15 08:21:09 Writing application : mkvmerge v7.0.0 ('Where We Going') 32bit built on Jun 9 2014 15:08:34 Writing library : libebml v1.3.0 + libmatroska v1.4.1 Video ID : 1 Format : AVC Format/Info : Advanced Video Codec Format profile : [email protected] Format settings : CABAC / 4 Ref Frames Format settings, CABAC : Yes Format settings, ReFrames : 4 frames Codec ID : V_MPEG4/ISO/AVC Duration : 1 h 44 min Bit rate : 6 257 kb/s Width : 1 920 pixels Height : 1 036 pixels Display aspect ratio : 1.85:1 Frame rate mode : Constant Frame rate : 23.976 (24000/1001) FPS Color space : YUV Chroma subsampling : 4:2:0 Bit depth : 8 bits Scan type : Progressive Bits/(Pixel*Frame) : 0.131 Stream size : 4.59 GiB (78%) Writing library : x264 core 142 r2431 ac76440 Encoding settings : cabac=1 / ref=3 / deblock=1:0:0 / analyse=0x3:0x113 / me=hex / subme=7 / psy=1 / psy_rd=1.00:0.00 / mixed_ref=1 / me_range=16 / chroma_me=1 / trellis=1 / 8x8dct=1 / cqm=0 / deadzone=21,11 / fast_pskip=1 / chroma_qp_offset=-2 / threads=6 / lookahead_threads=1 / sliced_threads=0 / nr=0 / decimate=1 / interlaced=0 / bluray_compat=0 / constrained_intra=0 / bframes=3 / b_pyramid=2 / b_adapt=1 / b_bias=0 / direct=1 / weightb=1 / open_gop=0 / weightp=2 / keyint=240 / keyint_min=23 / scenecut=40 / intra_refresh=0 / rc_lookahead=40 / rc=2pass / mbtree=1 / bitrate=6257 / ratetol=1.0 / qcomp=0.60 / qpmin=0 / qpmax=69 / qpstep=4 / cplxblur=20.0 / qblur=0.5 / ip_ratio=1.40 / aq=1:1.00 Default : Yes Forced : No Audio ID : 2 Format : DTS XLL Format/Info : Digital Theater Systems Commercial name : DTS-HD Master Audio Codec ID : A_DTS Duration : 1 h 45 min Bit rate mode : Variable Bit rate : 1 793 kb/s Channel(s) : 6 channels Channel layout : C L R Ls Rs LFE Sampling rate : 48.0 kHz Frame rate : 93.750 FPS (512 SPF) Bit depth : 16 bits Compression mode : Lossless Stream size : 1.32 GiB (22%) Default : Yes Forced : No


   


Related Torrents




Recent Searches

Home - Browse Torrents - Upload Torrent - Recent Torrents - Login - Register - FAQ

Can't load ExtraTorrent.Network
2006-2018 ExtraTorrent.Network