ExtraTorrent

Login   |   Register   |   Home
Loading...
Loading...
Browse Torrents
| Search Cloud | | | | | FAQ  
» » Jackpot (2013) Hindi - 720p WEB-DL - x264 - AAC -Sun George (Requested)

Download Jackpot (2013) Hindi - 720p WEB-DL - x264 - AAC -Sun George (Requested) extratorrent


Download torrent: Download Magnet Jackpot (2013) Hindi - 720p WEB-DL - x264 - AAC -Sun George (Requested)
Info hash 09DE12A5795C2875029257F8E53EE89522DB4284
Torrent ID14020511
Comments: Sort Read Comments
Category: Movies
Health:
 Seeders: 4 |  Leechers: 3 |  Completed: 236
Torrent language: Hindi Hindi
Total Size: 1.4 GB
Uploader: Sungeorge Trusted Uploader Site Friend Superman Sun
Torrent added: 15-03-2019, 11:10:04
Views: 52



Extratorrent Download Torrent nuketokex’s blog
nuketokex.hatenablog.com
e.forclaytonnc.com
e.forclaytonnc.com/tiz
платья "size plus " | Свадебный салон Фея
https://feya74.com.ru/blog/svadebnye-platya-razmera-size-plus



Jackpot (2013) Hindi - 720p WEB-DL - x264 - AAC -Sun George (Requested)






https://www.imdb.com/title/tt3309662/











===================================================================


Source : DTOne (Thanks)


General
Format : Matroska
Format version : Version 4
File size : 1.36 GiB
Duration : 1 h 30 min
Overall bit rate : 2 151 kb/s
Movie name : Jackpot (2013) Hindi - 720p WEB-DL - x264 - AAC -Sun George (Requested)


===================================================================


Video
ID : 1
Format : AVC
Format/Info : Advanced Video Codec
Format profile : [email protected]
Format settings : CABAC / 5 Ref Frames
Format settings, CABAC : Yes
Format settings, RefFrames : 5 frames
Codec ID : V_MPEG4/ISO/AVC
Duration : 1 h 30 min
Bit rate : 2 000 kb/s
Width : 1 280 pixels
Height : 544 pixels
Display aspect ratio : 2.35:1
Frame rate mode : Constant
Frame rate : 24.000 FPS
Color space : YUV
Chroma subsampling : 4:2:0
Bit depth : 8 bits
Scan type : Progressive
Bits/(Pixel*Frame) : 0.120
Stream size : 1.25 GiB (92%)
Title : Sun George


===================================================================


Audio
ID : 2
Format : AAC LC
Format/Info : Advanced Audio Codec Low Complexity
Codec ID : A_AAC-2
Duration : 1 h 30 min
Bit rate : 171 kb/s
Channel(s) : 2 channels
Channel layout : L R
Sampling rate : 48.0 kHz
Frame rate : 46.875 FPS (1024 SPF)
Compression mode : Lossy
Stream size : 111 MiB (8%)
Title : Sun George
Language : Hindi
Default : Yes
Forced : No





















   


Related Torrents
Browse Movies Torrents Related Torrents added recently in our database RSS  
Added  Size  Sort S  Sort L  Sort Health
Download Magnet English  48_Hours_S31E26_WEB_x264-LiGATE_[eztv] in TV, by EZTVag 5 minutes 516.4 MB 33718 4702
Download Magnet English  48_Hours_S31E27_WEB_x264-LiGATE_[eztv] in TV, by EZTVag 5 minutes 515.1 MB 99504 80156
Download Magnet English  The_Resident_S02E18_720p_WEB_x264-TBS[TGx] in TV, by mazemaze16 5 minutes 1.1 GB 49490 54121
Download Magnet English  The_Resident_S02E18_WEB_x264-TBS[TGx] in TV, by mazemaze16 5 minutes 357.4 MB 16741 26926
Download Magnet English  48_Hours_S31E28_WEB_x264-LiGATE_[eztv] in TV, by EZTVag 5 minutes 514.7 MB 96902 22802
Download Magnet English  60_Minutes_S51E23_480p_x264-mSD[TGx] in TV, by mazemaze16 15 minutes 157.2 MB 88463 13192
Download Magnet English  Bob's_Burgers_(2011)_-_S09E18_(1080p_WEB-DL_x265_HEVC_10bit____ in TV, by QxR 15 minutes 177.8 MB 59326 90162
Download Magnet English  Family_Guy_(1999)_-_S17E16_(1080p_WEB-DL_x265_HEVC_10bit_AAC___ in TV, by QxR 15 minutes 178.0 MB 27219 19592
Download Magnet English  The_Simpsons_(1989)_-_S30E18_(1080p_WEB-DL_x265_HEVC_10bit_A___ in TV, by QxR 15 minutes 179.1 MB 51428 95643
Download Magnet English  The_Final_Wish_(2018)_[BluRay]_[720p]_[YTS]_[YIFY] in Movies, by YTSAGx 25 minutes 815.3 MB 58975 52927




Recent Searches

Home - Browse Torrents - Upload Torrent - Recent Torrents - Login - Register - FAQ

Can't load ExtraTorrent.Network
2006-2018 ExtraTorrent.Network