ExtraTorrent

Login   |   Register   |   Home
Loading...
Loading...
Browse Torrents
| Search Cloud | | | | | FAQ  
» » Bokura Ga Ita [DVDRip] [x264] [AC3] [864x480p] [compiled ~jnx_r]

Download Bokura Ga Ita [DVDRip] [x264] [AC3] [864x480p] [compiled ~jnx_r] extratorrent


Download torrent: Download Magnet Bokura Ga Ita [DVDRip] [x264] [AC3] [864x480p] [compiled ~jnx_r]
Info hash 5C3B4D0688ED5C9C32A1A2A47602E01E3473A804
Torrent ID14020532
Comments: Sort Read Comments
Category: Anime
Health:
 Seeders: 1 |  Leechers: 4 |  Completed: 4
Torrent language: Japanese Japanese
Total Size: 11.3 GB
Uploader: jnxr Trusted Uploader Site Friend Superman Sun
Torrent added: 15-03-2019, 12:00:03
Views: 30



Extratorrent Download Torrent



My personal Bokura Ga Ita folder^
how it got here?
>>casually browsing through my old anims.gif
>>[random bad sectors appear on hdd]
>>WTF?.jpg
>>open crystal disk info - says the drive is fkd.rar
>>notice few scan files gone bad in BGI folder
>>panic and open up anim checking tool
>>luckily rest of the vid files pass crc checks
>>make torrent asap [backup still running]
>>ppls profit? well someone better… haven’t slept the night for this

Credits added to each track in the mkv file.

Extras included, those who don’t want please omit.

General
Unique ID : 27999226826152746143104961109032755269 (0x15107476B68C31873FF4DBA67A3CE045)
Complete name : Bokura Ga Ita [DVDRip] [x264] [AC3] [864x480p] [compiled ~jnx_r]\Bokura Ga Ita - 01 [DVDRip] [x264] [AC3] [864x480p] [compiled ~ jnx_r] [C884EC10].mkv
Format : Matroska
Format version : Version 4
File size : 306 MiB
Duration : 25 min 57 s
Overall bit rate : 1 648 kb/s
Encoded date : UTC 2019-03-15 07:45:23
Writing application : mkvmerge v32.0.0 (‘Astral Progressions’) 64-bit
Writing library : libebml v1.3.7 + libmatroska v1.5.0
Attachments : bb_reisho_v1.ttf / Bienetresocial.ttf / comic.ttf / comic_2.ttf / Complete_in_Him.ttf / Fertigo_PRO.otf / hannahs_messy_handwriting_regular.ttf / HART2.TTF / LUXO____.TTF / oknofont.ttf

Video
ID : 1
Format : AVC
Format/Info : Advanced Video Codec
Format profile : [email protected]
Format settings : CABAC / 6 Ref Frames
Format settings, CABAC : Yes
Format settings, RefFrames : 6 frames
Codec ID : V_MPEG4/ISO/AVC
Duration : 25 min 57 s
Bit rate : 1 200 kb/s
Width : 864 pixels
Height : 480 pixels
Display aspect ratio : 16:9
Frame rate mode : Constant
Frame rate : 23.976 (24000/1001) FPS
Original frame rate : 23.976 (23976/1000) FPS
Color space : YUV
Chroma subsampling : 4:2:0
Bit depth : 8 bits
Scan type : Progressive
Bits/(Pixel*Frame) : 0.121
Stream size : 223 MiB (73%)
Title : Track 01 [DmzJ] [x264] [Video]
Writing library : x264 core 59 r859M ce13bb6
Encoding settings : cabac=1 / ref=6 / deblock=1:1:1 / analyse=0x3:0x133 / me=umh / subme=6 / me-prepass=0 / brdo=1 / mixed_ref=1 / me_range=16 / chroma_me=1 / trellis=1 / 8x8dct=1 / cqm=0 / deadzone=21,11 / chroma_qp_offset=0 / threads=1 / nr=0 / decimate=1 / mbaff=0 / fgo=0 / bframes=3 / b_pyramid=1 / b_adapt=1 / b_bias=0 / direct=1 / wpredb=1 / bime=1 / keyint=250 / keyint_min=25 / scenecut=40 / rc=2pass / bitrate=1200 / ratetol=1.0 / rceq=‘blurCplx^(1-qComp)’ / qcomp=1.00 / qpmin=10 / qpmax=51 / qpstep=4 / cplxblur=20.0 / qblur=0.5 / ip_ratio=1.40 / pb_ratio=1.30 / aq=2:1.00
Language : Japanese
Default : Yes
Forced : No

Audio
ID : 2
Format : AC-3
Format/Info : Audio Coding 3
Commercial name : Dolby Digital
Codec ID : A_AC3
Duration : 25 min 35 s
Bit rate mode : Constant
Bit rate : 448 kb/s
Channel(s) : 2 channels
Channel layout : L R
Sampling rate : 48.0 kHz
Frame rate : 31.250 FPS (1536 SPF)
Bit depth : 16 bits
Compression mode : Lossy
Stream size : 82.0 MiB (27%)
Title : Track 02 [DmzJ] [AC-3] [Audio]
Language : Japanese
Service kind : Complete Main
Default : Yes
Forced : No

Text #1
ID : 3
Format : ASS
Codec ID : S_TEXT/ASS
Codec ID/Info : Advanced Sub Station Alpha
Duration : 25 min 34 s
Bit rate : 199 b/s
Count of elements : 566
Compression mode : Lossless
Stream size : 37.3 KiB (0%)
Title : Track 03 [Urusai] [English] [ASS]
Language : English
Default : Yes
Forced : No

Text #2
ID : 4
Format : ASS
Codec ID : S_TEXT/ASS
Codec ID/Info : Advanced Sub Station Alpha
Duration : 25 min 30 s
Bit rate : 196 b/s
Count of elements : 599
Compression mode : Lossless
Stream size : 36.7 KiB (0%)
Title : Track 04 [Triad] [Chinese] [ASS]
Language : Chinese
Default : No
Forced : No

Text #3
ID : 5
Format : ASS
Codec ID : S_TEXT/ASS
Codec ID/Info : Advanced Sub Station Alpha
Duration : 25 min 37 s
Bit rate : 218 b/s
Count of elements : 528
Compression mode : Lossless
Stream size : 41.0 KiB (0%)
Title : Track 05 [Nodanoshi&Blackly&laci] [ASS]
Language : Russian
Default : No
Forced : No

Text #4
ID : 6
Format : UTF-8
Codec ID : S_TEXT/UTF8
Codec ID/Info : UTF-8 Plain Text
Duration : 25 min 37 s
Bit rate : 123 b/s
Count of elements : 529
Stream size : 23.3 KiB (0%)
Title : Track 06 [Nodanoshi&Blackly&laci] [SRT]
Default : No
Forced : No

Menu
00:00:00.000 : en:Prologue
00:00:18.018 : en:OP
00:01:48.025 : en:Bokura ga Ita - EP1
00:22:27.897 : en:ED
00:25:04.678 : en:Priview





   


Related Torrents




Recent Searches

Home - Browse Torrents - Upload Torrent - Recent Torrents - Login - Register - FAQ

Can't load ExtraTorrent.Network
2006-2018 ExtraTorrent.Network