ExtraTorrent

Login   |   Register   |   Home
Loading...
Loading...
Browse Torrents
| Search Cloud | | | | | FAQ  
» » Impractical Jokers S07E04 Stripteased x 810 (1080p) x264 Phun Psyz

Download Impractical Jokers S07E04 Stripteased x 810 (1080p) x264 Phun Psyz extratorrent


Download torrent: Download Magnet Impractical Jokers S07E04 Stripteased x 810 (1080p) x264 Phun Psyz
Info hash D2F4CA564B82D289D318B8C803813D39244C8079
Torrent ID14020556
Comments: Sort Read Comments
Category: TV
Health:
 Seeders: 6 |  Leechers: n/a |  Completed: 85
Torrent language: English English
Total Size: 327.7 MB
Uploader: PhunPsyz Trusted Uploader Site Friend Superman Sun
Torrent added: 15-03-2019, 13:10:04
Views: 14



Extratorrent Download Torrent



www.imdb.com/title/tt8098424/?ref_=ttep_ep5

The jokers must do as they are told while pretending to be dentists, then try not to laugh as they go head to head in the food court. The loser suffers a revealing punishment.

Source: ViSUM (iTunes)







Format : MPEG-4
Format profile : Base Media / Version 2
Codec ID : mp42 (isom/iso2/avc1/mp41)
File size : 328 MiB
Duration : 24 min 44 s
Overall bit rate mode : Variable
Overall bit rate : 1 852 kb/s
Writing application : HandBrake 1.2.0 2018121700

Video
ID : 1
Format : AVC
Format/Info : Advanced Video Codec
Format profile : [email protected]
Format settings : CABAC / 1 Ref Frames
Format settings, CABAC : Yes
Format settings, ReFrames : 1 frame
Codec ID : avc1
Codec ID/Info : Advanced Video Coding
Duration : 24 min 44 s
Bit rate : 1 686 kb/s
Width : 1 440 pixels
Height : 810 pixels
Display aspect ratio : 16:9
Frame rate mode : Constant
Frame rate : 29.970 (30000/1001) FPS
Color space : YUV
Chroma subsampling : 4:2:0
Bit depth : 8 bits
Scan type : Progressive
Bits/(Pixel*Frame) : 0.048
Stream size : 298 MiB (91%)
Writing library : x264 core 157 r2935 545de2f

Audio
ID : 2
Format : AAC LC
Format/Info : Advanced Audio Codec Low Complexity
Codec ID : mp4a-40-2
Duration : 24 min 44 s
Bit rate mode : Constant
Bit rate : 160 kb/s
Channel(s) : 2 channels
Channel layout : L R
Sampling rate : 48.0 kHz
Frame rate : 46.875 FPS (1024 SPF)
Compression mode : Lossy
Stream size : 28.2 MiB (9%)
Title : Stereo
Language : English

Text
Language : English
Default : Yes
Forced : No





   


Related Torrents
Browse Movies Torrents Related Torrents added recently in our database RSS  
Added  Size  Sort S  Sort L  Sort Health
Download Magnet English  48_Hours_S31E26_WEB_x264-LiGATE_[eztv] in TV, by EZTVag 36 seconds 516.4 MB 36035 35056
Download Magnet English  48_Hours_S31E27_WEB_x264-LiGATE_[eztv] in TV, by EZTVag 36 seconds 515.1 MB 48762 33014
Download Magnet English  The_Resident_S02E18_720p_WEB_x264-TBS[TGx] in TV, by mazemaze16 36 seconds 1.1 GB 35297 8575
Download Magnet English  The_Resident_S02E18_WEB_x264-TBS[TGx] in TV, by mazemaze16 36 seconds 357.4 MB 24999 4557
Download Magnet English  48_Hours_S31E28_WEB_x264-LiGATE_[eztv] in TV, by EZTVag 36 seconds 514.7 MB 34939 61775
Download Magnet English  60_Minutes_S51E23_480p_x264-mSD[TGx] in TV, by mazemaze16 10 minutes 157.2 MB 84894 32179
Download Magnet English  Bob's_Burgers_(2011)_-_S09E18_(1080p_WEB-DL_x265_HEVC_10bit____ in TV, by QxR 10 minutes 177.8 MB 15663 777
Download Magnet English  Family_Guy_(1999)_-_S17E16_(1080p_WEB-DL_x265_HEVC_10bit_AAC___ in TV, by QxR 10 minutes 178.0 MB 39402 97291
Download Magnet English  The_Simpsons_(1989)_-_S30E18_(1080p_WEB-DL_x265_HEVC_10bit_A___ in TV, by QxR 10 minutes 179.1 MB 81779 37825
Download Magnet English  The_Final_Wish_(2018)_[BluRay]_[720p]_[YTS]_[YIFY] in Movies, by YTSAGx 20 minutes 815.3 MB 47647 13378




Recent Searches

Home - Browse Torrents - Upload Torrent - Recent Torrents - Login - Register - FAQ

Can't load ExtraTorrent.Network
2006-2018 ExtraTorrent.Network